<?xml version="1.0" standalone="no"?>
<!DOCTYPE svg PUBLIC "-//W3C//DTD SVG 1.1//EN" "http://www.w3.org/Graphics/SVG/1.1/DTD/svg11.dtd">
<svg xmlns="http://www.w3.org/2000/svg">
<metadata>This SVG font generated by Fontastic.me</metadata>
<defs>
<font id="untitled-font-1" horiz-adv-x="512">
  <font-face font-family="untitled-font-1" font-weight="500" font-stretch="normal" units-per-em="512" panose-1="2 0 6 9 0 0 0 0 0 0" ascent="480" descent="-32" x-height="416" cap-height="480" bbox="-2 -33 513 480" underline-thickness="50" underline-position="-100" unicode-range="U+0021-007A"/>
    <missing-glyph/>
    <glyph glyph-name="a" unicode="a" d="M256 77l-216 252l48 42l168 -196l168 196l48 -42z"/>
    <glyph glyph-name="b" unicode="b" d="M0 -32c7 52 15 105 22 157l135 -135c-52 -8 -105 -15 -157 -22zM179 58l202 202l22 -22l-224 -225l-134 135l224 224l22 -22l-202 -202l23 -23l202 202l45 -45l-202 -202zM473 348l-90 90c-14 14 -36 12 -46 -2v0l-43 -43l134 -134l43 43v0l3 2c12 12 11 32 -1 44z"/>
    <glyph glyph-name="c" unicode="c" d="M512 64h-352v416h229l123 -132v-284zM224 128h224v195l-87 93h-137v-288zM352 -32h-352v416h160v-64h-96v-288h224v32h64v-96zM256 352h128v-32h-128v32zM256 288h160v-32h-160v32zM256 224h160v-32h-160v32zM96 256h64v-32h-64v32zM96 192h96v-32h-96v32zM96 128h96v-32 h-96v32z"/>
    <glyph glyph-name="d" unicode="d" d="M512 288v-128h-192v-192h-128v192h-192v128h192v192h128v-192h192z"/>
    <glyph glyph-name="e" unicode="e" d="M256 320c0 80 178 96 256 96v-352h-16h-16v-32c-64 0 -192 19 -192 -32h-64c0 51 -128 32 -192 32v32h-16h-16v352c78 0 256 -16 256 -96zM224 82v238l-1 6c-7 39 -75 51 -139 56h-8c-14 1 -28 2 -44 2v-272c58 0 145 -2 192 -30zM480 112v272c-158 -2 -192 -43 -192 -64 v-238c47 28 134 30 192 30z"/>
    <glyph glyph-name="f" unicode="f" d="M256 416c-106 0 -192 -86 -192 -192s86 -192 192 -192s192 86 192 192s-86 192 -192 192zM256 480c141 0 256 -115 256 -256s-115 -256 -256 -256s-256 115 -256 256s115 256 256 256zM256 224c-9 0 -16 9 -16 21v86c0 12 7 21 16 21s16 -9 16 -21v-86 c0 -12 -7 -21 -16 -21zM351 160c-4 0 -8 2 -11 4l-92 64c-8 6 -8 15 -2 22s17 9 25 3l92 -64c8 -6 9 -16 3 -23c-4 -4 -10 -6 -15 -6z"/>
    <glyph glyph-name="g" unicode="g" d="M0 352l256 128l256 -128l-256 -128zM256 177l166 81l90 -34l-256 -128l-256 128l98 32zM256 49l166 81l90 -34l-256 -128l-256 128l98 32z"/>
    <glyph glyph-name="h" unicode="h" d="M256 448c-60 0 -116 -25 -158 -66l-66 66v-192h192l-81 81c30 30 70 47 113 47c88 0 160 -72 160 -160s-72 -160 -160 -160c-57 0 -110 31 -139 80l-55 -32c40 -69 114 -112 194 -112c123 0 224 101 224 224s-101 224 -224 224z"/>
    <glyph glyph-name="i" unicode="i" d="M320 256h32v-288h-352v288h32v45c0 78 65 142 144 142s144 -64 144 -142v-45zM198 32l-13 73c8 5 13 13 13 23c0 15 -11 27 -26 27s-27 -12 -27 -27c0 -10 6 -18 14 -23l-14 -73h53zM256 256v45c0 42 -37 78 -80 78s-80 -36 -80 -78v-45h160z"/>
    <glyph glyph-name="j" unicode="j" d="M368 448c79 0 144 -64 144 -143v-50h-64v50c0 44 -36 79 -80 79s-80 -35 -80 -79v-50h64v-288h-352v288h224v50c0 79 65 143 144 143zM201 31l-14 76c8 5 14 13 14 23c0 15 -12 27 -27 27s-27 -12 -27 -27c0 -10 6 -18 14 -23l-14 -76h54z"/>
    <glyph glyph-name="k" unicode="k" d="M479 404c-21 14 -51 10 -66 -9l-237 -289l-78 89c-16 18 -46 21 -66 7s-24 -41 -8 -59l155 -175l310 378c15 19 11 44 -10 58z"/>
    <glyph glyph-name="l" unicode="l" d="M160 16v106c-91 12 -160 77 -160 154c0 86 86 156 192 156h128c106 0 192 -70 192 -156c0 -83 -80 -151 -181 -156zM192 380c-71 0 -128 -47 -128 -104s57 -104 128 -104h32v-52l85 52h11c71 0 128 47 128 104s-57 104 -128 104h-128z"/>
    <glyph glyph-name="m" unicode="m" d="M485 383l-229 -202l-227 202l3 1h448zM510 363c1 -3 2 -7 2 -11v-256c0 -6 -2 -10 -4 -15l-159 139zM2 364l162 -143l-161 -138c-2 4 -3 8 -3 13v256c0 4 0 8 2 12zM256 139l68 60l155 -135h-447h-2l158 135z"/>
    <glyph glyph-name="n" unicode="n" d="M352 192h64v-192h-64v192zM288 128h192v-64h-192v64zM327 32v-64h-295v512h248l136 -147v-109h-59v83l-12 13h-77v83l-12 13h-165v-384h236z"/>
    <glyph glyph-name="o" unicode="o" d="M39 362v79h119l78 -79h-197zM473 7h-434l-39 276h512zM473 322h-434v40h434v-40z"/>
    <glyph glyph-name="p" unicode="p" d="M224 320h224v-256h-416v320h128z"/>
    <glyph glyph-name="q" unicode="q" d="M96 416v-384h320v275l-109 109h-211zM32 480h301l147 -147v-365h-448v512zM160 256h192v-32h-192v32zM160 320h128v-32h-128v32zM160 192h192v-32h-192v32zM160 128h192v-32h-192v32z"/>
    <glyph glyph-name="r" unicode="r" d="M192 128v-128h128v128h-128zM288 160v32h-32v-32h32zM288 256h-32v-32h-32v-32h32v32h32v32zM320 403v-243h32v-128h64v275zM96 416v-384h64v128h32v256h-96zM224 416v-32h32v-32h-32v-32h32v-32h-32v-32h32v32h32v32h-32v32h32v32h-32v32h-32zM32 480h301l147 -147v-365 h-448v512zM224 96h64v-32h-64v32z"/>
    <glyph glyph-name="s" unicode="s" d="M96 416v-384h288v275l-13 13h-83v83l-13 13h-179zM32 480h269l147 -147v-365h-416v512z"/>
    <glyph glyph-name="t" unicode="t" d="M96 416v-384h320v275l-109 109h-211zM32 480h301l147 -147v-365h-448v512zM176 227c-26 0 -48 21 -48 48c0 26 22 48 48 48s48 -22 48 -48c0 -27 -22 -48 -48 -48zM192 163l64 -64l64 192l64 -224h-256z"/>
    <glyph glyph-name="u" unicode="u" d="M96 416v-384h320v275l-109 109h-211zM32 480h301l147 -147v-365h-448v512zM192 99v192l170 -96z"/>
    <glyph glyph-name="v" unicode="v" d="M96 416v-384h320v275l-109 109h-211zM32 480h301l147 -147v-365h-448v512zM256 112c0 -27 -31 -48 -64 -48c-35 0 -64 22 -64 48s29 48 64 48c12 0 23 -3 32 -7v225l32 6v-29c32 0 96 -35 96 -163c0 32 -32 99 -96 99v-179z"/>
    <glyph glyph-name="w" unicode="w" d="M444 379h-376v-310h376v310zM512 448v-448h-512v448h512zM112 192h32v-96h-32v96zM176 224h32v-128h-32v128zM240 192h32v-96h-32v96zM304 288h32v-192h-32v192zM368 192h32v-96h-32v96z"/>
    <glyph glyph-name="x" unicode="x" d="M512 216l-122 -120v64s-209 64 -262 -64c0 32 19 192 262 192v64zM0 416h384v-64h-39v32h-307v-320h307v32h39v-64h-384v384z"/>
    <glyph glyph-name="y" unicode="y" d="M336 288c0 -44 -36 -80 -80 -80s-80 36 -80 80s36 80 80 80s80 -36 80 -80zM416 288c0 -11 -1 -21 -3 -31l26 -28l-38 -8c-9 -19 -22 -36 -37 -50l-5 -5l25 -198l-128 128l-128 -128l25 198l-5 5c-15 14 -28 31 -37 50l-38 8l26 28c-2 10 -3 20 -3 31s1 21 3 31l-26 28 l38 8c9 19 22 36 37 50l-5 38l35 -16c18 10 38 17 59 19l19 34l19 -34c21 -2 41 -9 59 -19l35 16l-5 -38c15 -14 28 -31 37 -50l38 -8l-26 -28c2 -10 3 -20 3 -31zM256 176c62 0 112 50 112 112s-50 112 -112 112s-112 -50 -112 -112s50 -112 112 -112z"/>
    <glyph glyph-name="z" unicode="z" d="M512 384v-128l-288 -288l-224 224l288 288h128zM385 302c28 0 51 23 51 51s-23 51 -51 51s-51 -23 -51 -51s23 -51 51 -51z"/>
    <glyph glyph-name="A" unicode="A" d="M256 416c141 0 256 -115 256 -256v-128h-512v128c0 141 115 256 256 256zM254 288c17 0 33 15 32 32c0 18 -14 32 -32 32s-32 -15 -32 -33c1 -17 15 -31 32 -31v0zM65 118c25 0 42 31 25 52c-6 8 -14 11 -25 12c-25 0 -42 -31 -25 -52c5 -7 13 -11 23 -12h2zM124 218 c9 15 6 34 -9 45c-22 14 -55 -5 -49 -33c3 -14 15 -26 31 -26c10 0 20 5 27 14zM165 265c25 0 39 27 29 47c-8 15 -29 21 -44 13c-16 -9 -21 -27 -13 -43c6 -10 16 -17 28 -17zM256 48c26 0 48 22 48 48s-22 48 -48 48s-48 -22 -48 -48s22 -48 48 -48zM353 288 c5 17 5 33 -2 36s-20 -7 -28 -23l-75 -142c3 0 5 1 8 1c19 0 36 -8 48 -22zM381 244c-3 -20 14 -37 32 -37c25 0 41 29 26 50c-10 14 -31 18 -45 8c-7 -5 -12 -13 -13 -21zM445 111c25 0 41 29 26 50c-10 14 -31 18 -45 8c-13 -9 -18 -30 -7 -45c6 -9 15 -13 26 -13z"/>
    <glyph glyph-name="B" unicode="B" d="M488 89c-15 23 -65 38 -115 59s-61 28 -61 28l-1 47s19 15 25 60c12 -3 23 17 24 28s-1 40 -15 37c3 22 5 42 4 52c-4 38 -42 79 -100 79s-95 -41 -99 -79c-1 -10 1 -30 4 -52c-14 3 -17 -26 -16 -37s12 -31 24 -28c6 -45 25 -60 25 -60l-1 -47s-11 -7 -61 -28 s-100 -36 -115 -59c-13 -21 -9 -121 -9 -121h497s3 100 -10 121z"/>
    <glyph glyph-name="C" unicode="C" d="M32 128h192v-96h-192v96zM128 64v32h-64v-32h64zM192 64v32h-19v-32h19zM288 128h192v-96h-192v96zM384 64v32h-64v-32h64zM448 64v32h-19v-32h19zM320 224h192v-96h-192v96zM416 160v32h-64v-32h64zM480 160v32h-19v-32h19zM288 320h192v-96h-192v96zM384 256v32h-64 v-32h64zM448 256v32h-19v-32h19zM32 224h192v-96h-192v96zM128 160v32h-64v-32h64zM192 160v32h-19v-32h19zM0 320h192v-96h-192v96zM96 256v32h-64v-32h64zM160 256v32h-19v-32h19zM32 416h192v-96h-192v96zM128 352v32h-64v-32h64zM192 352v32h-19v-32h19z"/>
    <glyph glyph-name="D" unicode="D" d="M0 216l126 140v-66c251 0 270 -165 270 -198c-54 132 -270 66 -270 66v-66zM512 455v-462h-363v77h36v-38h291v385h-291v-39h-36v77h363z"/>
    <glyph glyph-name="E" unicode="E" d="M69 105c38 0 68 -31 68 -69s-30 -68 -68 -68s-69 30 -69 68s31 69 69 69zM5 304c182 -2 329 -150 331 -332h-90c-1 64 -27 125 -72 170c-45 46 -105 71 -169 72v90zM5 480v-90c229 -2 415 -188 417 -418h90c-2 279 -228 506 -507 508z"/>
    <glyph glyph-name="F" unicode="F" d="M464 384c9 0 16 -7 16 -16v-32c0 -9 -7 -16 -16 -16h-448c-9 0 -16 7 -16 16v32c0 9 7 16 16 16h112v32c0 32 0 64 64 64h96c32 0 64 0 64 -64v-32h112zM288 384v32h-96v-32h96zM352 285l-1 3h65v-304c0 -9 -7 -16 -16 -16h-320c-9 0 -16 7 -16 16v304h65l-1 -3v-237 c0 -9 7 -16 16 -16s16 7 16 16v237l-1 3h66l-1 -3v-237c0 -9 7 -16 16 -16s16 7 16 16v237l-1 3h66l-1 -3v-237c0 -9 7 -16 16 -16s16 7 16 16v237z"/>
    <glyph glyph-name="G" unicode="G" d="M0 249c131 184 412 163 512 -40l-2 -19c-131 -184 -412 -163 -512 40zM251 104c64 -5 120 42 125 106s-43 120 -107 125s-120 -42 -125 -106s43 -120 107 -125zM260 278c-32 0 -58 -26 -58 -58s26 -59 58 -59s58 27 58 59s-26 58 -58 58z"/>
    <glyph glyph-name="H" unicode="H" d="M0 234c118 200 394 200 512 0v-20c-118 -200 -394 -200 -512 0v20zM256 112c62 0 112 50 112 112s-50 112 -112 112s-112 -50 -112 -112s50 -112 112 -112z"/>
    <glyph glyph-name="I" unicode="I" d="M512 70l-102 -102l-154 154l-154 -154l-102 102l154 154l-154 154l102 102l154 -154l154 154l102 -102l-154 -154z"/>
    <glyph glyph-name="J" unicode="J" d="M448 64v-32h32v32h-32zM64 192v-192h352v192h-352zM128 480v-160h256v160h-256zM0 480h448l64 -64v-448h-512v512zM288 448h64v-96h-64v96zM128 64h224v-32h-224v32zM128 128h160v-32h-160v32z"/>
    <glyph glyph-name="K" unicode="K" d="M176 288h64v-64h-64v64zM272 288h64v-64h-64v64zM368 288h64v-64h-64v64zM80 192h64v-64h-64v64zM176 192h64v-64h-64v64zM272 192h64v-64h-64v64zM368 192h64v-64h-64v64zM80 96h64v-64h-64v64zM176 96h64v-64h-64v64zM272 96h64v-64h-64v64zM432 416h64v-448h-480v448 h64v64h96v-64h160v64h96v-64zM368 448v-64h32v64h-32zM112 448v-64h32v64h-32zM464 0v320h-416v-320h416z"/>
    <glyph glyph-name="L" unicode="L" d="M275 168c0 -13 -2 -15 -14 -15h-48c-12 0 -15 2 -15 15v89c0 17 25 21 48 29c24 9 48 24 48 62c0 33 -20 50 -56 50c-42 0 -77 -23 -84 -23c-3 0 -6 3 -7 7l-18 48c-1 3 -1 5 -1 8c0 19 80 42 125 42c81 0 131 -55 131 -133c0 -92 -69 -116 -109 -131v-48zM239 -32 c-32 0 -57 28 -57 60c0 34 25 60 57 60c31 0 57 -27 57 -60c0 -32 -26 -60 -57 -60z"/>
    <glyph glyph-name="M" unicode="M" d="M256 475l256 -74v-355l-256 -73l-256 73v355zM236 20v272l-197 57v-273zM473 76v273l-197 -57v-272zM256 328l187 53l-187 54l-187 -54z"/>
    <glyph glyph-name="N" unicode="N" d="M256 480c141 0 256 -115 256 -256s-115 -256 -256 -256s-256 115 -256 256s115 256 256 256zM427 175v98h-122v122h-98v-122h-122v-98h122v-122h98v122h122z"/>
    <glyph glyph-name="O" unicode="O" d="M512 344l-171 -120l2 64c-28 1 -219 74 -279 -51c1 32 35 191 284 179l2 64zM348 405c-2 -55 -3 -86 -4 -115zM169 160c28 -1 219 -74 279 51c-1 -32 -35 -191 -284 -179l-2 -64l-162 136l171 120zM512 344l-171 -120l2 64c-28 1 -219 74 -279 -51c1 32 35 191 284 179 l2 64zM348 405c-2 -55 -3 -86 -4 -115zM169 160c28 -1 219 -74 279 51c-1 -32 -35 -191 -284 -179l-2 -64l-162 136l171 120z"/>
    <glyph glyph-name="P" unicode="P" d="M128 288v-64h192v64h-192zM501 47c6 -6 6 -16 0 -22l-46 -46c-6 -6 -16 -6 -22 0l-88 88c-35 -22 -77 -35 -121 -35c-124 0 -224 100 -224 224s100 224 224 224s224 -100 224 -224c0 -44 -13 -86 -35 -121zM224 96c-88 0 -160 72 -160 160s72 160 160 160 s160 -72 160 -160s-72 -160 -160 -160zM128 288v-64h192v64h-192zM501 47c6 -6 6 -16 0 -22l-46 -46c-6 -6 -16 -6 -22 0l-88 88c-35 -22 -77 -35 -121 -35c-124 0 -224 100 -224 224s100 224 224 224s224 -100 224 -224c0 -44 -13 -86 -35 -121zM224 96 c-88 0 -160 72 -160 160s72 160 160 160s160 -72 160 -160s-72 -160 -160 -160z"/>
    <glyph glyph-name="Q" unicode="Q" d="M256 352h-64v-64h-64v-64h64v-64h64v64h64v64h-64v64zM501 47c6 -6 6 -16 0 -22l-46 -46c-6 -6 -16 -6 -22 0l-88 88c-35 -22 -77 -35 -121 -35c-124 0 -224 100 -224 224s100 224 224 224s224 -100 224 -224c0 -44 -13 -86 -35 -121zM224 96c-88 0 -160 72 -160 160 s72 160 160 160s160 -72 160 -160s-72 -160 -160 -160z"/>
    <glyph glyph-name="R" unicode="R" d="M249 465h-178c-31 0 -56 -25 -56 -56v-178c0 -31 25 -56 56 -56h178c31 0 56 25 56 56v178c0 31 -25 56 -56 56zM65 289v62h190v-62h-190zM249 480c39 0 71 -32 71 -71v-178c0 -39 -32 -71 -71 -71h-178c-39 0 -71 32 -71 71v178c0 39 32 71 71 71h178zM80 304h160v32 h-160v-32zM441 256c39 0 71 -29 71 -64v-160c0 -35 -32 -64 -71 -64h-178c-39 0 -71 29 -71 64v160c0 35 32 64 71 64h178zM448 93v38h-77v77h-38v-77h-77v-38h77v-77h38v77h77z"/>
    <glyph glyph-name="S" unicode="S" d="M448 288h-160v-32h128v-128h-128v-160h-64v160h-160l-64 64l64 64h160v32h-128v128h128v64h64v-64h160l64 -64z"/>
    <glyph glyph-name="T" unicode="T" d="M333 178c11 0 20 -8 20 -19v-20c0 -11 -9 -19 -20 -19h-46c-2 -10 -6 -19 -10 -28l34 -34c8 -8 9 -20 1 -28l-14 -14c-8 -8 -20 -8 -28 0l-31 32c-8 -6 -18 -11 -28 -14v-46c0 -11 -9 -20 -20 -20h-19c-11 0 -20 9 -20 20v40c-11 2 -22 6 -32 11l-30 -30 c-8 -8 -19 -8 -27 0l-14 14c-8 8 -8 20 0 28l26 26c-7 10 -11 21 -15 33h-40c-11 0 -19 8 -19 19v20c0 11 8 19 19 19h37c3 12 7 24 13 34l-28 28c-8 8 -8 20 0 28l14 14c8 8 19 8 27 0l28 -28c10 6 20 10 31 13v43c0 11 9 20 20 20h20c11 0 19 -9 19 -20v-43 c10 -3 20 -6 29 -11l33 33c8 8 20 8 28 0l14 -14c8 -8 8 -20 0 -28l-33 -32c5 -8 9 -18 12 -27h49zM172 95c27 0 49 22 49 49s-22 49 -49 49s-49 -22 -49 -49s22 -49 49 -49zM500 390c7 0 13 -6 13 -13v-12c0 -7 -6 -13 -13 -13h-29c-1 -6 -4 -11 -7 -17l22 -22 c5 -5 5 -13 0 -18l-8 -8c-5 -5 -13 -5 -18 0l-20 20c-5 -4 -12 -7 -18 -9v-30c0 -7 -5 -12 -12 -12h-12c-7 0 -13 5 -13 12v26c-7 1 -14 4 -20 7l-19 -19c-5 -5 -13 -5 -18 0l-9 9c-5 5 -5 13 0 18l17 17c-4 6 -8 13 -10 20h-25c-7 0 -12 6 -12 13v12c0 7 5 13 12 13h24 c2 8 4 14 8 21l-18 18c-5 5 -5 13 0 18l9 8c5 5 12 5 17 0l18 -17c6 4 13 6 20 8v28c0 7 5 12 12 12h13c7 0 12 -5 12 -12v-28c7 -2 13 -4 19 -7l21 21c5 5 12 5 17 0l9 -9c5 -5 5 -13 0 -18l-21 -20c3 -5 6 -11 8 -17h31zM398 337c-17 0 -32 14 -32 31s15 31 32 31 s31 -14 31 -31s-14 -31 -31 -31z"/>
    <glyph glyph-name="U" unicode="U" d="M317 480l147 -147v-365h-416v512h269zM400 32v275l-13 13h-83v83l-13 13h-179v-384h288z"/>
    <glyph glyph-name="V" unicode="V" d="M384 -8l64 64v-88h-64v24zM192 32v-64h-160v512h269l111 -110l-46 -46l-91 92h-179v-384h96zM222 -31c4 31 9 63 13 94l80 -80c-31 -4 -62 -10 -93 -14zM449 144l13 -14l-133 -134l-81 81l134 134l14 -14l-121 -120l13 -14l121 121l27 -27l-121 -120l14 -14zM504 196 c8 -8 7 -21 -1 -27v0l-26 -26l-80 80l26 26v0c6 8 19 10 28 1z"/>
    <glyph glyph-name="W" unicode="W" d="M352 -8l64 64v-88h-64v24v0zM160 32v-64h-160v512h269l110 -110l-45 -45l-91 91h-179v-384h96zM238 -32l-133 151c-14 15 -11 38 6 50s43 9 57 -6l68 -76l203 248c13 16 38 20 56 8s22 -34 9 -50z"/>
    <glyph glyph-name="X" unicode="X" d="M59 60h207v-60h-266v480h249l135 -138v-102h-59v78l-101 102h-165v-360zM336 -32v65c-45 8 -80 47 -80 95c0 53 43 96 96 96h64c53 0 96 -43 96 -96c0 -51 -40 -93 -90 -96zM352 192c-35 0 -64 -29 -64 -64s29 -64 64 -64h16v-32l43 32h5c35 0 64 29 64 64s-29 64 -64 64 h-64z"/>
    <glyph glyph-name="Y" unicode="Y" d="M124 70c-31 0 -59 -3 -89 -3h-6v28h-29v309c82 0 165 -8 212 -45c10 -9 21 -20 21 -39c0 79 160 84 233 84v-50v-50v-31l-1 -35s-9 1 -13 -1c-5 -2 -10 -6 -10 -6v146c0 0 -43 -3 -88 -11s-89 -21 -93 -43c-3 -18 -4 -38 -3 -70s2 -76 2 -144c0 0 8 3 19 6s26 4 38 2 l-1 -7l-6 -27c0 -3 0 -14 -3 -15c-6 -2 -13 -3 -19 -4c-13 -3 -26 -9 -26 -25h-58c0 31 -50 31 -80 31zM76 374c-15 1 -30 2 -47 2v-239c59 0 136 -5 175 -27v210c0 2 -1 3 -1 5c-3 17 -20 28 -43 36s-53 11 -82 13h-2zM316 42c3 21 6 41 9 62l53 -53c-21 -3 -41 -6 -62 -9z M465 156l9 -9l-89 -89l-54 54l89 89l9 -9l-80 -80l9 -9l80 80l17 -17l-80 -80l10 -10zM503 192c6 -6 4 -14 -1 -18v-1l-17 -17l-53 54l17 17v0s1 0 1 1s15 3 17 0z"/>
    <glyph glyph-name="Z" unicode="Z" d="M480 96c18 0 32 -14 32 -32s-14 -32 -32 -32h-448c-18 0 -32 14 -32 32s14 32 32 32h448zM160 128c-35 0 -64 29 -64 64v224h320v-32c53 0 96 -43 96 -96s-43 -96 -96 -96c0 -35 -29 -64 -64 -64h-192zM480 288c0 35 -29 64 -64 64v-128c35 0 64 29 64 64zM128 384v-192 c0 -18 14 -32 32 -32v224h-32z"/>
    <glyph glyph-name="zero" unicode="0" d="M0 480h32v-512h-32v512zM64 96h288v-128h-288v128zM64 288h384v-128h-384v128zM80 480h160v-128h-160v128z"/>
    <glyph glyph-name="one" unicode="1" d="M444 416l68 -175v-209h-512v209l68 175h376zM352 276h112l-41 105h-334l-41 -105h112c0 -58 43 -104 96 -104s96 46 96 104z"/>
    <glyph glyph-name="two" unicode="2" d="M465 463c63 -108 63 -288 0 -396c0 0 -82 93 -170 106c-10 29 -14 60 -14 92s4 63 14 92c88 13 170 106 170 106zM250 57c36 -36 0 -72 -36 -72s-71 73 -71 109c0 19 -11 48 -20 72h-52c-39 0 -71 41 -71 91s32 91 71 91h179v-182h-27c-1 -42 9 -90 27 -109zM71 203v90 c-20 0 -35 -20 -35 -45s15 -45 35 -45z"/>
    <glyph glyph-name="three" unicode="3" d="M478 365h-444v-346h444v346zM512 416v-448h-512v448h512zM242 71l-51 125l-50 -118l-49 113l-22 -94c-2 -7 -7 -9 -11 -7s-7 9 -5 16l33 143l54 -124l50 119l46 -112l36 165c1 7 7 10 11 8s6 -9 5 -16zM0 480v-115h512v115h-512zM451 276c0 -35 -29 -64 -64 -64 s-64 29 -64 64s29 64 64 64s64 -29 64 -64zM317 128h64v-64h-64v64zM391 128h64v-64h-64v64z"/>
    <glyph glyph-name="four" unicode="4" d="M176 275h-96c-18 0 -32 -14 -32 -32v-38c0 -18 14 -32 32 -32h96c18 0 32 14 32 32v38c0 18 -14 32 -32 32zM176 323c44 0 80 -36 80 -80v-38c0 -44 -36 -80 -80 -80h-96c-44 0 -80 36 -80 80v38c0 44 36 80 80 80h96zM432 275h-96c-18 0 -32 -14 -32 -32v-32 c0 -18 14 -32 32 -32h96c18 0 32 14 32 32v32c0 18 -14 32 -32 32zM432 323c44 0 80 -36 80 -80v-32c0 -44 -36 -80 -80 -80h-96c-44 0 -80 36 -80 80v32c0 44 36 80 80 80h96zM368 227c0 -18 -14 -32 -32 -32h-160c-18 0 -32 14 -32 32s14 32 32 32h160c18 0 32 -14 32 -32 z"/>
    <glyph glyph-name="five" unicode="5" d="M192 288l56 184l72 -184h192l-165 -109l69 -179l-168 107l-153 -107l54 179l-149 109h192z"/>
    <glyph glyph-name="six" unicode="6" d="M72 -18c7 18 15 34 23 49l25 45l-45 83h20l36 -68l36 68h19l-44 -82c18 -30 34 -60 48 -94h-18c-5 12 -12 25 -18 37c-8 14 -15 28 -23 42c-15 -25 -29 -52 -41 -80h-18zM257 -20c-27 1 -35 19 -35 47v218l17 4v-222c0 -13 3 -22 12 -25c3 -1 5 -1 9 -2zM372 27 c0 -32 -20 -49 -52 -49c-19 0 -31 5 -40 11l4 20c7 -6 22 -10 36 -10c20 0 35 7 35 27c0 16 -7 23 -18 29l-17 9c-20 10 -38 20 -38 50c0 29 18 49 47 49c15 0 29 -4 36 -9l-3 -20c-8 5 -17 9 -33 9c-17 0 -30 -10 -30 -27c0 -16 9 -22 19 -28l14 -7c21 -11 40 -22 40 -54z M38 480h31v-310h-31v310zM53 480v-62h249v62h-249zM410 340h31v-341h-31v341zM441 325h-155v155h14l140 -141v-14z"/>
    <glyph glyph-name="seven" unicode="7" d="M112 480c9 0 16 -7 16 -16v-96c0 -9 -7 -16 -16 -16h-96c-9 0 -16 7 -16 16v96c0 9 7 16 16 16h96zM112 288c9 0 16 -7 16 -16v-96c0 -9 -7 -16 -16 -16h-96c-9 0 -16 7 -16 16v96c0 9 7 16 16 16h96zM112 96c9 0 16 -7 16 -16v-96c0 -9 -7 -16 -16 -16h-96 c-9 0 -16 7 -16 16v96c0 9 7 16 16 16h96zM496 480c9 0 16 -7 16 -16v-96c0 -9 -7 -16 -16 -16h-288c-9 0 -16 7 -16 16v96c0 9 7 16 16 16h288zM496 288c9 0 16 -7 16 -16v-96c0 -9 -7 -16 -16 -16h-288c-9 0 -16 7 -16 16v96c0 9 7 16 16 16h288zM496 96h-288 c-9 0 -16 -7 -16 -16v-96c0 -9 7 -16 16 -16h288c9 0 16 7 16 16v96c0 9 -7 16 -16 16z"/>
    <glyph glyph-name="eight" unicode="8" d="M256 480c141 0 256 -115 256 -256s-115 -256 -256 -256s-256 115 -256 256s115 256 256 256zM326 91c-3 0 4 19 4 21c0 -1 -3 -7 -4 -8c0 1 -3 -1 -6 -2c0 -4 4 -12 7 -12c-3 -6 3 -9 -2 -15c-3 -4 -3 -15 5 -12c15 6 15 33 26 42c0 -1 1 -1 1 -2c1 3 1 6 2 9s1 6 -1 8 c-3 -1 -8 -10 -10 -13c-6 -8 -21 -9 -17 -23c-1 3 -2 6 -2 9c-1 -2 -1 -2 -3 -2zM441 254c-15 89 -92 158 -185 158c-18 0 -35 -3 -51 -7c-4 -3 -8 -7 -12 -9c-2 -1 -12 -4 -13 -7c2 -5 -1 -5 -5 -13c-5 -2 -12 -1 -16 -4c-3 -9 -11 -17 -16 -24c12 -2 -2 -11 -9 -16 s-9 -13 -14 -19c-3 -4 -8 -4 -11 -8c-6 -7 -17 -17 -19 -26c-7 -6 -7 -20 -9 -29c-6 -21 0 -46 17 -61c2 -2 24 2 26 3c8 6 19 9 24 -1c5 -9 11 0 16 -4c0 -5 5 -12 4 -19c-10 -10 16 -30 21 -39c3 -5 10 -19 9 -25c-9 -9 0 -22 6 -29c10 -12 20 -25 30 -37 c7 -1 15 -2 22 -2c4 0 8 1 12 1c6 3 11 8 15 17c1 5 13 6 10 16s5 15 14 20c12 7 15 14 13 28c3 5 -9 23 -5 31c5 11 10 17 17 27c12 17 22 26 28 47c3 10 3 13 2 22c-7 2 -22 -15 -30 -10c-6 4 -13 24 -24 23c-7 3 -15 23 -19 32c-5 10 -17 17 -20 30c4 0 30 -19 28 -29 c2 -5 13 -19 19 -21c4 -7 5 -17 10 -24c4 -6 32 14 35 18c-1 6 4 9 9 10c2 4 1 5 4 9c2 4 -1 8 3 8c1 5 -1 12 -5 16c-3 3 -9 2 -12 5c-2 2 -3 7 -5 8c-1 -3 1 -14 -6 -11c-9 -3 -5 4 -11 8c-1 -10 -4 2 -8 4c-3 2 -10 8 -10 12c10 0 14 -10 25 -13c3 -1 5 0 7 2 c3 5 5 -4 7 -5c10 -6 21 2 30 1c5 -4 9 -10 16 -9c3 -5 -1 -1 -1 -3c2 -4 6 -6 10 -7c1 3 1 5 -1 7c8 -7 12 -20 17 -29c3 -5 7 -15 11 -23zM257 377c-5 -2 -11 -15 -16 -6c-3 9 3 15 2 24c5 11 1 0 7 4c0 -2 -1 -3 -2 -4c0 0 32 -12 22 -24c1 1 -3 1 0 0c-2 1 -13 0 -13 6z M233 362c4 3 -21 18 -7 22c-3 -3 16 -13 10 -18c7 -9 3 -15 11 -17c0 5 -1 4 0 7c1 0 1 0 2 -1c1 4 -5 7 -3 11c5 -1 2 -2 3 2c2 1 5 1 7 0c-5 -6 5 -3 0 -9c1 -4 4 -4 4 -7s24 -1 28 2c0 -2 3 -36 -9 -27c-3 2 -5 2 -8 -1c-5 -5 -11 2 -18 1c6 1 0 3 0 0c-1 5 -15 5 -18 2 c-8 -9 1 -11 -12 -8c-8 2 -4 10 -15 8c-3 0 -4 3 -6 4c0 6 6 9 7 15c-8 8 -41 -19 -49 -12c0 2 21 19 24 22c5 10 17 12 24 17s10 -3 14 -10c7 -13 -8 -7 -8 -14c8 -3 7 -2 13 5c4 4 0 10 6 6zM208 357c1 5 5 11 5 16c-3 -1 -8 -13 -9 -17c1 0 3 0 4 1zM194 361 c1 3 -2 0 0 0zM288 380c-1 3 -13 9 -16 13c0 5 8 11 10 3c-2 0 -2 -2 -3 -3c6 -3 24 -17 25 -24c-4 -2 -8 -2 -11 1c-4 0 -8 9 -5 10zM309 366c-4 0 2 -3 0 0zM325 380c-4 -4 -9 4 -10 6c1 -2 0 1 0 0v3c3 -1 7 -8 10 -9zM178 378l-3 -3c1 0 2 3 3 3z"/>
    <glyph glyph-name="nine" unicode="9" d="M232 250l209 183c16 14 43 14 59 0s16 -38 0 -52l-180 -157l180 -157c16 -14 16 -38 0 -52c-8 -7 -19 -10 -30 -10s-21 3 -29 10l-209 183c-8 7 -13 16 -13 26s5 19 13 26zM12 250l209 183c16 14 43 14 59 0c17 -14 17 -38 0 -52l-179 -157l179 -157c17 -14 17 -38 0 -52 c-8 -7 -18 -10 -29 -10s-22 3 -30 10l-209 183c-8 7 -12 16 -12 26s4 19 12 26z"/>
    <glyph glyph-name="exclam" unicode="!" d="M280 250c8 -7 13 -16 13 -26s-5 -19 -13 -26l-209 -183c-8 -7 -18 -10 -29 -10s-22 3 -30 10c-16 14 -16 38 0 52l180 157l-180 157c-16 14 -16 38 0 52s43 14 59 0zM500 250c8 -7 12 -16 12 -26s-4 -19 -12 -26l-209 -183c-8 -7 -19 -10 -30 -10s-21 3 -29 10 c-16 14 -16 38 0 52l179 157l-179 157c-16 14 -16 38 0 52s43 14 59 0z"/>
    <glyph glyph-name="numbersign" unicode="#" d="M505 35c18 -36 1 -67 -38 -67h-422c-39 0 -56 31 -38 67l75 145c18 36 48 94 66 130l75 143c18 35 48 35 66 0l75 -143c18 -35 48 -93 66 -129zM288 32v64h-64v-64h64zM288 144v160h-64v-160h64zM505 35c18 -36 1 -67 -38 -67h-422c-39 0 -56 31 -38 67l75 145 c18 36 48 94 66 130l75 143c18 35 48 35 66 0l75 -143c18 -35 48 -93 66 -129zM288 32v64h-64v-64h64zM288 144v160h-64v-160h64z"/>
    <glyph glyph-name="dollar" unicode="$" d="M96 416v-384h320v275l-109 109h-211zM32 480h301l147 -147v-365h-448v512zM128 128h64v-64h-64v64zM224 288h64v-224h-64v224zM320 192h64v-128h-64v128z"/>
    <glyph glyph-name="percent" unicode="%" d="M132 394c6 -6 6 -17 0 -23s-17 -6 -23 0l-23 23c-6 6 -6 16 0 22s17 6 23 0zM48 256c9 0 16 -7 16 -16s-7 -16 -16 -16h-32c-9 0 -16 7 -16 16s7 16 16 16h32zM496 224c9 0 16 -7 16 -16s-7 -16 -16 -16h-32c-9 0 -16 7 -16 16s7 16 16 16h32zM448 394c6 -6 6 -17 0 -23 l-22 -23c-6 -6 -17 -6 -23 0s-6 17 0 23l23 23c6 6 16 6 22 0zM288 432c0 -9 -7 -16 -16 -16s-16 7 -16 16v32l1 6c2 6 8 10 15 10c9 0 16 -7 16 -16v-32zM256 352c71 0 128 -57 128 -128c0 -47 -26 -88 -64 -110v-50h-128v50c-38 22 -64 63 -64 110c0 71 57 128 128 128z M304 141c30 18 48 49 48 83c0 53 -43 96 -96 96s-96 -43 -96 -96c0 -34 18 -65 48 -83l16 -9v-36h64v36zM192 0v32h128v-32h-33l1 -4c0 -15 -14 -28 -32 -28s-32 13 -32 28l1 4h-33z"/>
    <glyph glyph-name="ampersand" unicode="&amp;" d="M505 123c9 -14 7 -100 7 -100h-123c4 122 -9 143 -14 151c-8 13 -49 9 -64 17l28 21s-12 9 -16 39c-8 -2 -17 12 -17 19s2 27 11 25c-2 15 -4 27 -3 34c2 25 28 52 66 52s64 -27 66 -52c1 -7 0 -19 -2 -34c9 2 10 -18 10 -25s-8 -21 -16 -19c-4 -30 -16 -39 -16 -39v-31 s8 -5 41 -19s32 -24 42 -39zM361 134c10 -15 7 -111 7 -111h-368s-3 96 7 111c11 17 48 29 85 44s46 20 46 20v35s-14 11 -18 44c-9 -2 -18 13 -18 21s1 29 12 27c-2 16 -4 31 -3 39c3 28 30 58 73 58s70 -30 73 -58c1 -8 0 -23 -2 -39c10 2 11 -19 11 -27s-9 -23 -18 -21 c-4 -33 -18 -44 -18 -44v-35s9 -5 46 -20s74 -27 85 -44z"/>
    <glyph glyph-name="quotesingle" unicode="'" d="M32 160h192v-192h-192v192zM256 160h192v-192h-192v192zM288 320h192v-128h-224v128h-32v-128h-224v128h192v2c-47 5 -128 21 -128 78c0 40 40 80 80 80c36 0 72 -33 79 -128h34c7 95 43 128 79 128c40 0 80 -40 80 -80c0 -57 -81 -73 -128 -78v-2zM96 400 c0 -27 51 -41 95 -46c-5 58 -22 94 -47 94c-22 0 -48 -26 -48 -48zM336 448c22 0 48 -26 48 -48c0 -26 -51 -41 -95 -46c5 58 22 94 47 94z"/>
    <glyph glyph-name="parenleft" unicode="(" d="M101 225v-221h82v135h128v-135h83v221l-147 111zM0 233l247 188l94 -71v64h64v-113l90 -68l-39 -51l-27 20v-234h-363v234l-27 -20z"/>
    <glyph glyph-name="parenright" unicode=")" d="M111 -22c-21 0 -41 12 -60 30s-97 83 0 172c40 37 89 90 143 144c29 29 60 59 90 89c55 55 95 42 157 -17c73 -70 87 -138 55 -175c-42 -48 -201 -207 -208 -214c-9 -9 -23 -9 -32 0s-9 23 0 32c2 2 164 165 205 212c9 11 12 52 -51 112c-36 34 -47 64 -93 18l-90 -90 c-54 -54 -105 -104 -143 -142c-62 -62 -19 -91 2 -112c17 -17 30 -21 55 4c50 50 172 164 199 198c6 7 14 25 6 32c-11 10 -32 -10 -38 -16c-64 -68 -149 -149 -150 -150c-9 -9 -23 -8 -32 1s-8 23 1 32c1 1 84 81 148 148c41 43 79 39 101 20c27 -23 20 -70 -1 -96 c-19 -23 -91 -94 -163 -164c-18 -17 -32 -31 -39 -38c-20 -20 -41 -30 -62 -30z"/>
    <glyph glyph-name="asterisk" unicode="*" d="M434 56l-62 -64v-24h62v88zM186 32v-64h-154v512h260l106 -110l-43 -46l-89 92h-172v-384h92zM474 44c7 -13 6 -76 6 -76h-278s-2 63 5 76c8 15 37 24 65 37s34 17 34 17v30s-10 9 -13 37c-7 -2 -14 11 -14 18s1 25 9 23c-2 14 -4 26 -3 33c2 24 24 49 56 49 s54 -25 56 -49c1 -7 -1 -19 -3 -33c8 2 9 -16 9 -23s-7 -20 -14 -18c-3 -28 -13 -37 -13 -37v-30s6 -4 34 -17s56 -22 64 -37z"/>
    <glyph glyph-name="plus" unicode="+" d="M434 56l-62 -64v-24h62v88zM186 32v-64h-154v512h260l106 -110l-43 -46l-89 92h-172v-384h92zM474 44c7 -13 6 -76 6 -76h-278s-2 63 5 76c8 15 37 24 65 37s34 17 34 17v30s-10 9 -13 37c-7 -2 -14 11 -14 18s1 25 9 23c-2 14 -4 26 -3 33c2 24 24 49 56 49 s54 -25 56 -49c1 -7 -1 -19 -3 -33c8 2 9 -16 9 -23s-7 -20 -14 -18c-3 -28 -13 -37 -13 -37v-30s6 -4 34 -17s56 -22 64 -37zM179 58c-21 0 -37 17 -37 37c0 21 16 38 37 38s38 -17 38 -38c0 -20 -17 -37 -38 -37zM201 189c-1 -8 -2 -9 -9 -9h-26c-7 0 -8 1 -9 9l-10 175v9 c0 6 4 5 8 5h48c4 0 9 1 9 -5c0 -3 -1 -1 -1 -9z"/>
    <glyph glyph-name="comma" unicode="," d="M186 32v-64h-154v512h260l106 -110l-43 -46l-89 92h-172v-384h92zM160 118c81 135 271 135 352 0v-14c-81 -135 -271 -135 -352 0v14zM336 30c45 0 81 36 81 81s-36 81 -81 81s-81 -36 -81 -81s36 -81 81 -81zM377 111c0 -22 -19 -41 -41 -41s-41 19 -41 41s19 40 41 40 s41 -18 41 -40z"/>
  </font>
</defs>
</svg>
