<?xml version="1.0" standalone="no"?>
<!DOCTYPE svg PUBLIC "-//W3C//DTD SVG 1.1//EN" "http://www.w3.org/Graphics/SVG/1.1/DTD/svg11.dtd">
<svg xmlns="http://www.w3.org/2000/svg">
<metadata>Generated by Fontastic.me</metadata>
<defs>
<font id="openproject-icon-font" horiz-adv-x="512">
<font-face font-family="openproject-icon-font" units-per-em="512" ascent="480" descent="-32"/>
<missing-glyph horiz-adv-x="512" />

<glyph unicode="&#57344;" d="M512 320l-192 0l0 192l-128 0l0-192l-192 0l0-128l192 0l0-192l128 0l0 192l192 0z"/>
<glyph unicode="&#57345;" d="M256 512c-141 0-256-115-256-256c0-141 115-256 256-256c141 0 256 115 256 256c0 141-115 256-256 256z m171-305l-122 0l0-122l-98 0l0 122l-122 0l0 98l122 0l0 122l98 0l0-122l122 0z"/>
<glyph unicode="&#57346;" d="M176 320l64 0l0-64l-64 0z m96 0l64 0l0-64l-64 0z m96 0l64 0l0-64l-64 0z m-288-96l64 0l0-64l-64 0z m96 0l64 0l0-64l-64 0z m96 0l64 0l0-64l-64 0z m96 0l64 0l0-64l-64 0z m-288-96l64 0l0-64l-64 0z m96 0l64 0l0-64l-64 0z m96 0l64 0l0-64l-64 0z m160 320l0 64l-96 0l0-64l-160 0l0 64l-96 0l0-64l-64 0l0-448l480 0l0 448z m-64 32l32 0l0-64l-32 0z m-256 0l32 0l0-64l-32 0z m352-448l-416 0l0 320l416 0z"/>
<glyph unicode="&#57347;" d="M32 160l0-96l192 0l0 96z m96-64l-64 0l0 32l64 0z m64 0l-19 0l0 32l19 0z m96 64l0-96l192 0l0 96z m96-64l-64 0l0 32l64 0z m64 0l-19 0l0 32l19 0z m-128 160l0-96l192 0l0 96z m96-64l-64 0l0 32l64 0z m64 0l-19 0l0 32l19 0z m-192 160l0-96l192 0l0 96z m96-64l-64 0l0 32l64 0z m64 0l-19 0l0 32l19 0z m-416-32l0-96l192 0l0 96z m96-64l-64 0l0 32l64 0z m64 0l-19 0l0 32l19 0z m-192 160l0-96l192 0l0 96z m96-64l-64 0l0 32l64 0z m64 0l-19 0l0 32l19 0z m-128 160l0-96l192 0l0 96z m96-64l-64 0l0 32l64 0z m64 0l-19 0l0 32l19 0z"/>
<glyph unicode="&#57348;" d="M512 376l-162 136l-2-64c-250 12-283-147-284-179c60 125 252 52 279 51l-2-64z m-164 61l-4-115c1 29 2 59 4 115z m-179-245l2 64l-171-120l162-136l4 115c-1-14-1-31-2-51c250-12 283 147 284 179c-60-125-252-52-279-51z"/>
<glyph unicode="&#57349;" d="M0 248l126 140l0-66c251 0 270-165 270-198c-54 132-270 66-270 66l0-66z m512 239l0-462l-363 0l0 77l36 0l0-38l291 0l0 385l-291 0l0-39l-36 0l0 77z"/>
<glyph unicode="&#57350;" d="M444 448l-376 0l-68-175l0-209l512 0l0 209z m-92-140c0-57-43-104-96-104c-53 0-96 47-96 104l-112 0l41 105l334 0l41-105z"/>
<glyph unicode="&#57351;" d="M512 102l-154 154l154 154l-102 102l-154-154l-154 154l-102-102l154-154l-154-154l102-102l154 154l154-154z"/>
<glyph unicode="&#57352;" d="M512 96l-352 0l0 416l229 0l123-132z m-288 64l224 0l0 195l-87 93l-137 0z m128-160l-352 0l0 416l160 0l0-64l-96 0l0-288l224 0l0 32l64 0z m-96 384l128 0l0-32l-128 0z m0-64l160 0l0-32l-160 0z m0-64l160 0l0-32l-160 0z m-160 32l64 0l0-32l-64 0z m0-64l96 0l0-32l-96 0z m0-64l96 0l0-32l-96 0z"/>
<glyph unicode="&#57353;" d="M232 282l209 183c15 14 43 14 59 0c16-14 16-37 0-52l-180-157l180-157c16-14 16-37 0-52c-8-7-19-10-30-10c-11 0-21 3-29 10l-209 183c-8 7-13 16-13 26c0 10 5 19 13 26z m-220 0l209 183c16 14 44 14 59 0c17-14 17-37 0-52l-179-157l179-157c17-14 17-37 0-52c-8-7-18-10-29-10c-11 0-22 3-30 10l-209 183c-8 7-12 16-12 26c0 10 4 19 12 26z"/>
<glyph unicode="&#57354;" d="M280 282l-209 183c-15 14-43 14-59 0c-16-14-16-37 0-52l180-157l-180-157c-16-14-16-37 0-52c8-7 19-10 30-10c11 0 21 3 29 10l209 183c8 7 13 16 13 26c0 10-5 19-13 26z m220 0l-209 183c-16 14-44 14-59 0c-17-14-17-37 0-52l179-157l-179-157c-17-14-17-37 0-52c8-7 18-10 29-10c11 0 22 3 30 10l209 183c8 7 12 16 12 26c0 10-4 19-12 26z"/>
<glyph unicode="&#57355;" d="M352 224l64 0l0-192l-64 0z m-64-64l192 0l0-64l-192 0z m39-96l-236 0l0 384l165 0l12-13l0-83l77 0l12-13l0-83l59 0l0 109l-136 147l-248 0l0-512l295 0z"/>
<glyph unicode="&#57356;" d="M171 64l42 0l0-43l-42 0z m-43 43l43 0l0-43l-43 0z m-43 384l43 0l0-43l-43 0z m214-427l42 0l0-43l-42 0z m42 43l43 0l0-43l-43 0z m128 128l0 42l-42 0l0 128l-43 0l0 43l-43 0l0-43l-170 0l0 43l-43 0l0-43l-43 0l0-128l-42 0l0-42l-43 0l0-128l43 0l0 85l42 0l0-85l43 0l0 42l256 0l0-42l43 0l0 85l42 0l0-85l43 0l0 128z m-341 0l0 85l43 0l0-85z m213 0l0 85l43 0l0-85z m43 256l43 0l0-43l-43 0z"/>
<glyph unicode="&#57357;" d="M249 497c31 0 56-25 56-56l0-178c0-31-25-56-56-56l-178 0c-31 0-56 25-56 56l0 178c0 31 25 56 56 56l178 0m-184-176l190 0l0 62l-190 0l0-62m184 191l-178 0c-39 0-71-32-71-71l0-178c0-39 32-71 71-71l178 0c39 0 71 32 71 71l0 178c0 39-32 71-71 71z m-169-176l0 32l160 0l0-32z m361-48l-178 0c-39 0-71-29-71-64l0-160c0-35 32-64 71-64l178 0c39 0 71 29 71 64l0 160c0 35-32 64-71 64z m7-163l-77 0l0-77l-38 0l0 77l-77 0l0 38l77 0l0 77l38 0l0-77l77 0z"/>
<glyph unicode="&#57358;" d="M39 394l197 0l-78 79l-119 0z m434-355l-434 0l-39 276l512 0z m0 315l-434 0l0 40l434 0z"/>
<glyph unicode="&#57359;" d="M0 266l0-20c118-200 394-200 512 0l0 20c-118 200-394 200-512 0z m256-122c-62 0-112 50-112 112c0 62 50 112 112 112c62 0 112-50 112-112c0-62-50-112-112-112z"/>
<glyph unicode="&#57360;" d="M465 495c0 0-82-93-170-106c-9-29-14-60-14-92c0-31 5-62 14-92c88-13 170-106 170-106c63 108 63 288 0 396z m-215-406c-19 19-28 67-27 109l27 0c0 35 0 85 0 109c0 21 0 50 0 73c-75 0-179 0-179 0c-39 0-71-41-71-91c0-50 32-91 71-91l52 0c9-23 20-53 20-72c0-37 35-109 71-109c36 0 71 36 36 72z m-179 146c-19 0-35 20-35 45c0 25 16 45 35 45z"/>
<glyph unicode="&#57361;" d="M0 512l32 0l0-512l-32 0z m64-384l288 0l0-128l-288 0z m0 192l384 0l0-128l-384 0z m16 192l160 0l0-128l-160 0z"/>
<glyph unicode="&#57362;" d="M512 248l-122 136l0-64c-243 0-262-160-262-192c53 128 262 64 262 64l0-64z m-512 200l0-384l384 0l0 64l-39 0l0-32l-307 0l0 320l307 0l0-32l39 0l0 64z"/>
<glyph unicode="&#57363;" d="M176 307c18 0 32-15 32-32l0-38c0-17-14-32-32-32l-96 0c-18 0-32 15-32 32l0 38c0 17 14 32 32 32l96 0m0 48l-96 0c-44 0-80-36-80-80l0-38c0-44 36-80 80-80l96 0c44 0 80 36 80 80l0 38c0 44-36 80-80 80z m256-48c18 0 32-15 32-32l0-32c0-18-14-32-32-32l-96 0c-18 0-32 14-32 32l0 32c0 17 14 32 32 32l96 0m0 48l-96 0c-44 0-80-36-80-80l0-32c0-44 36-80 80-80l96 0c44 0 80 36 80 80l0 32c0 44-36 80-80 80z m-64-96c0-18-14-32-32-32l-160 0c-18 0-32 14-32 32c0 17 14 32 32 32l160 0c18 0 32-15 32-32z"/>
<glyph unicode="&#57364;" d="M372 24l0 0l0-24l62 0l0 88z m-186 40l-92 0l0 384l172 0l89-92l43 46l-106 110l-260 0l0-512l154 0z m288 12c-8 15-36 24-64 37c-27 13-34 17-34 17l0 30c0 0 10 9 13 37c7-2 14 11 14 18c0 6-1 25-9 23c2 14 3 26 3 33c-3 24-24 49-56 49c-32 0-53-25-56-49c0-7 1-19 3-33c-8 2-9-17-9-23c0-7 7-20 14-18c3-28 13-37 13-37l0-30c0 0-7-5-34-17c-28-13-56-22-65-37c-7-13-5-76-5-76l278 0c0 0 2 63-6 76z m-295 14c-21 0-37 17-37 37c0 22 16 38 37 38c21 0 38-17 38-38c0-20-17-37-38-37z m22 131c-1-8-2-9-9-9l-26 0c-6 0-8 1-9 9l-10 175c0 7 0 6 0 9c0 5 4 5 8 5l48 0c3 0 9 0 9-5c0-3 0-2-1-9z"/>
<glyph unicode="&#57365;" d="M372 24l0 0l0-24l62 0l0 88z m-186 40l-92 0l0 384l172 0l89-92l43 46l-106 110l-260 0l0-512l154 0z m288 12c-8 15-36 24-64 37c-27 13-34 17-34 17l0 30c0 0 10 9 13 37c7-2 14 11 14 18c0 6-1 25-9 23c2 14 3 26 3 33c-3 24-24 49-56 49c-32 0-53-25-56-49c0-7 1-19 3-33c-8 2-9-17-9-23c0-7 7-20 14-18c3-28 13-37 13-37l0-30c0 0-7-5-34-17c-28-13-56-22-65-37c-7-13-5-76-5-76l278 0c0 0 2 63-6 76z"/>
<glyph unicode="&#57366;" d="M186 64l-92 0l0 384l172 0l89-92l43 46l-106 110l-260 0l0-512l154 0z m-26 86l0-14c81-135 271-135 352 0l0 14c-81 135-271 135-352 0z m176-88c-45 0-81 36-81 81c0 45 36 81 81 81c45 0 81-36 81-81c0-45-36-81-81-81z m41 81c0-23-19-41-41-41c-22 0-41 18-41 41c0 22 19 40 41 40c22 0 41-18 41-40z"/>
<glyph unicode="&#57367;" d="M275 200c0-13-2-15-14-15l-48 0c-13 0-15 2-15 15l0 89c0 17 24 20 48 29c24 9 48 23 48 62c0 32-20 50-56 50c-42 0-77-23-84-23c-3 0-7 3-7 7l-18 48c-1 3-1 5-1 8c0 19 80 42 125 42c81 0 131-56 131-133c0-92-69-116-109-131z m-36-200c-32 0-57 28-57 60c0 34 25 60 57 60c32 0 57-27 57-60c0-32-26-60-57-60z"/>
<glyph unicode="&#57368;" d="M505 155c-9 16-9 25-42 39c-33 14-41 19-41 19l0 31c0 0 12 10 16 39c7-2 16 12 16 19c0 7-1 27-10 25c1 14 3 27 2 34c-2 26-27 52-66 52c-38 0-63-26-66-52c0-7 1-20 3-34c-10 2-11-18-11-25c1-7 9-21 17-19c4-29 16-39 16-39l-28-21c16-9 56-4 64-17c5-8 18-28 14-151l123 0c0 0 2 86-7 100z m-144 11c-11 18-49 28-85 44c-37 15-46 20-46 20l0 35c0 0 14 11 18 44c9-2 18 13 18 21c1 8-1 29-11 27c2 16 3 31 2 39c-2 28-30 58-73 58c-43 0-71-30-73-58c-1-8 0-22 3-39c-11 2-13-19-12-27c0-8 9-23 18-21c4-33 18-44 18-44l0-35c0 0-9-5-46-20c-37-16-74-26-85-44c-10-15-7-111-7-111l368 0c0 0 2 96-7 111z"/>
<glyph unicode="&#57369;" d="M72 14c7 18 15 34 23 49l25 45l-45 83l20 0l36-68l36 68l19 0l-44-82l12-20l13-24c4-8 8-16 12-25c4-9 8-17 11-25l-18 0c-3 5-5 10-8 17c-3 6-6 13-10 20l-12 22l-11 20l-12-20l-11-22c-4-7-7-14-10-20c-3-7-6-13-8-18z m150 45l0 218l17 4l0-222c0-5 1-9 2-13c1-3 2-6 3-8c2-2 4-3 7-4c2-1 5-2 9-2l-3-20c-6 0-11 1-15 3c-4 1-8 4-11 8c-3 4-5 9-7 15c-1 5-2 12-2 21z m58-38l4 20c1-1 2-1 4-2c2-1 4-3 7-4c3-1 7-2 11-3c4-1 9-1 14-1c10 0 18 2 25 6c6 4 10 11 10 21c0 5-1 9-2 12c-1 4-3 7-6 9c-2 3-6 6-10 8l-17 9c-5 3-10 5-14 8c-5 3-9 6-12 10c-4 4-7 8-9 13c-2 6-3 12-3 19c0 15 4 27 13 36c8 9 20 13 34 13c10 0 17-1 24-3c6-2 10-4 12-6l-3-20c-3 1-6 3-11 5c-5 3-13 4-22 4c-4 0-8-1-12-2c-3-1-6-2-9-5c-3-2-5-4-6-8c-2-3-3-7-3-12c0-4 1-8 2-12c2-3 4-6 7-9c3-2 6-5 10-7l14-7c5-3 10-6 15-9c5-3 9-6 13-10c3-4 6-9 9-14c2-6 3-13 3-21c0-16-5-28-14-36c-9-9-22-13-38-13c-12 0-21 2-27 4c-7 3-11 5-13 7z m-242 491l31 0l0-310l-31 0z m15 0l249 0l0-62l-249 0z m357-140l31 0l0-341l-31 0z m31-15l-155 0l0 0l0 155l14 0l140-141l0-14"/>
<glyph unicode="&#57370;" d="M336 320c0-44-36-80-80-80c-44 0-80 36-80 80c0 44 36 80 80 80c44 0 80-36 80-80z m80 0c0 11-1 21-3 31l26 28l-38 8c-9 19-21 36-37 50l5 38l-35-16c-18 10-38 17-59 19l-19 34l-19-34c-21-2-41-9-59-19l-35 16l5-38c-16-14-28-31-37-50l-38-8l26-28c-2-10-3-20-3-31c0-11 1-21 3-31l-26-28l38-8c9-19 21-36 37-50l5-5l-25-198l128 128l128-128l-25 198l5 5c16 14 28 31 37 50l38 8l-26 28c2 10 3 20 3 31z m-160-112c-62 0-112 50-112 112c0 62 50 112 112 112c62 0 112-50 112-112c0-62-50-112-112-112z"/>
<glyph unicode="&#57371;" d="M478 397l0-346l-444 0l0 346l444 0m34 51l-512 0l0-448l512 0z m-270-345l-51 125l-50-118l-49 113l-22-94c-1-6-6-10-11-7c-4 2-6 9-5 16l33 143l54-124l50 119l46-112l36 165c1 7 6 10 11 8c4-2 7-9 5-16z m-242 409l512 0l0-115l-512 0z m451-204c0-35-28-64-64-64c-35 0-64 29-64 64c0 35 29 64 64 64c36 0 64-29 64-64z m-134-148l64 0l0-64l-64 0z m74 0l64 0l0-64l-64 0z"/>
<glyph unicode="&#57372;" d="M256 512c-141 0-256-115-256-256c0-141 115-256 256-256c141 0 256 115 256 256c0 141-115 256-256 256z m70-389c0 0 0 0 0 0c2 0 2 0 3 2c0-4 1-6 2-9c-4 14 11 14 17 23c3 3 7 12 10 13c1-2 2-5 1-8c1 2 0 0 0-1c0-2-1-5-2-8c-1 1-1 1-1 2c-11-9-11-35-26-42c-9-3-8 8-5 12c5 6-1 10 2 15c-1 0-1 1-1 1c0 0 0 0 0 0c0 0 0 0 0 0c-3 0-6 7-6 11c4 1 5 3 6 2c1 1 4 7 4 8c1-5-7-17-4-21z m115 163c-4 8-8 18-11 23c-6 9-9 22-17 29c2-2 2-5 1-7c-4 1-8 3-10 7c-1 2 4-2 1 3c-6-1-11 6-16 9c-10 2-20-6-30-1c-2 2-4 9-7 5c-2-3-4-3-7-2c-11 4-15 13-25 13c0-4 7-10 10-12c5-3 8-13 8-4c6-3 2-11 11-8c6-3 5 8 6 11c2-1 3-6 5-8c3-3 8-2 12-5c4-5 6-11 5-16c-4 0-1-5-3-8c-3-4-2-5-4-9c-5-2-10-4-9-10c-3-3-32-24-35-18c-5 7-6 16-10 24c-5 1-17 16-19 21c2 10-24 28-28 29c3-13 14-20 20-30c4-9 12-29 19-32c11 1 18-19 24-23c7-6 23 12 30 10c1-9 1-12-2-22c-6-21-15-30-28-47c-7-9-11-16-17-27c-4-8 8-26 5-31c2-13-1-22-13-28c-9-5-17-10-14-20c3-9-9-11-10-16c-4-9-9-14-15-17c-4 0-8-1-12-1c-7 0-15 1-22 2c-10 12-20 25-30 37c-6 7-15 20-6 29c1 6-6 20-9 25c-5 9-30 29-21 39c2 7-4 14-4 19c-5 4-11-5-16 4c-5 9-15 7-24 1c-1-2-24-5-26-3c-18 15-23 40-17 61c2 8 3 24 9 29c3 9 13 18 19 26c3 4 7 4 11 8c5 6 7 13 14 19c7 5 21 14 9 16c5 7 13 15 16 24c4 3 12 2 16 4c4 8 6 8 5 13c0 4 11 6 13 7c5 2 9 6 12 9c17 4 33 7 51 7c93 0 171-69 185-158z m-184 123c0-6 11-5 13-6c-3 2 1 2 0 0c10 12-21 24-22 24c1 1 2 2 2 4c-6-4-2 7-7-4c1-9-5-15-2-24c5-9 11 5 16 6z m-24-15c-6 4-2-1-6-6c-5-6-5-8-13-5c-1 7 16 1 8 14c-3 7-7 14-14 10c-7-5-19-8-24-17c-3-4-24-21-24-22c8-7 41 20 49 12c-1-5-7-10-7-15c2-1 3-4 6-4c10 2 8-6 15-8c14-3 4 0 12 8c3 3 17 3 18-2c0 3 6 1 0 0c7 1 13-6 18-1c3 4 6 3 8 1c12-9 8 26 9 27c-4-2-28-5-28-2c0 3-3 3-4 7c4 5-4 2 0 9c-2 1-4 1-7 0c-1-4 2-3-3-2c-2-4 4-7 3-11c0 0-1 1-2 1c-1-3 0-3 0-7c-8 1-4 7-11 17c6 5-13 15-10 18c-14-4 11-18 7-22z m-25-5c-1-1-3-1-4-1c1 3 6 16 9 17c0-5-4-12-5-16z m-14 4c1 4-2 1 0 0z m94 19c-3-1 1-10 5-10c4-2 7-3 11-1c-1 7-19 21-25 24c1 1 1 4 3 3c-2 8-10 2-10-3c3-4 15-10 16-13z m21-14c-4-1 2-3 0 0z m16 14c-3 1-6 8-10 9c0-2 0-2 0-3c0 1 1-2 0 0c1-2 7-10 10-6z m-147-2c-1-1-2-2-3-2c0 0 0 0 0-1c1 0 2 3 3 3z"/>
<glyph unicode="&#57373;" d="M160 48l0 106c-91 13-160 77-160 154c0 86 86 156 192 156l128 0c106 0 192-70 192-156c0-83-80-151-181-156z m32 364c-71 0-128-47-128-104c0-57 57-104 128-104l32 0l0-52l85 52l11 0c71 0 128 47 128 104c0 57-57 104-128 104z"/>
<glyph unicode="&#57374;" d="M448 320l64 64l-64 64l-160 0l0 64l-64 0l0-64l-128 0l0-128l128 0l0-32l-160 0l-64-64l64-64l160 0l0-160l64 0l0 160l128 0l0 128l-128 0l0 32z"/>
<glyph unicode="&#57375;" d="M444 411l0-310l-376 0l0 310l376 0m68 69l-512 0l0-448l512 0z m-400-256l32 0l0-96l-32 0z m64 32l32 0l0-128l-32 0z m64-32l32 0l0-96l-32 0z m64 96l32 0l0-192l-32 0z m64-96l32 0l0-96l-32 0z"/>
<glyph unicode="&#57376;" d="M256 448c-141 0-256-115-256-256l0-128l512 0l0 128c0 141-115 256-256 256z m-2-64c18 0 32-14 32-32c0-8-3-16-9-22c-6-6-14-10-23-10l0 0c-17 0-31 14-32 31c0 19 14 33 32 33z m-189-234l-2 0c-10 1-17 5-23 12c-5 7-8 15-7 23c2 17 16 29 32 29l4 0c8-1 16-5 21-12c5-7 8-15 7-24c-2-16-15-28-32-28z m59 100c-7-9-17-14-27-14c-6 0-13 2-18 6c-7 4-11 11-13 20c-2 8 0 17 5 24c9 14 30 18 44 9c15-11 18-30 9-45z m56 51c-4-2-9-4-15-4c-11 0-22 7-28 17c-8 16-3 35 13 43c15 9 36 2 44-13c8-15 2-34-14-43z m76-221c-26 0-48 22-48 48c0 26 22 48 48 48c26 0 48-22 48-48c0-26-22-48-48-48z m97 240l-49-150c-12 13-29 22-48 22c-3 0-6-1-8-1l75 142c8 16 21 26 28 23c7-3 8-19 2-36z m34-68c-5 7-7 16-6 24c2 9 6 16 13 21c14 10 35 6 45-8c5-6 7-15 5-23c-1-8-6-16-13-21c-6-4-12-6-18-6c-11 0-20 5-26 13z m76-103c-6-4-12-6-18-6c-11 0-20 5-26 13c-5 7-7 16-6 24c2 9 6 16 13 21c14 10 35 6 45-8c5-6 7-15 5-23c-1-8-6-16-13-21z"/>
<glyph unicode="&#57377;" d="M317 512l-269 0l0-512l416 0l0 365z m83-448l-288 0l0 384l179 0l13-13l0-83l83 0l13-13z"/>
<glyph unicode="&#57378;" d="M352 24l0 0l0-24l64 0l0 88z m-192 40l-96 0l0 384l179 0l91-91l45 45l-110 110l-269 0l0-512l160 0z m78-64l-133 151c-14 15-11 38 6 50c18 12 43 9 57-6l68-76l203 248c13 16 39 20 56 8c18-12 22-34 9-50z"/>
<glyph unicode="&#57379;" d="M384 24l0 0l0-24l64 0l0 88z m-192 40l-96 0l0 384l179 0l91-92l46 46l-111 110l-269 0l0-512l160 0z m30-63l6 47l7 47l40-40l40-40l-46-7z m227 175l-120-121l-14 14l121 120l-27 27l-121-121l-13 14l121 120l-14 14l-134-134l81-81l134 134z m56 26c7 7 6 19-1 26l-53 54c-8 7-20 7-27 0c0 0-1-1-1-1l0 0l-26-26l80-80l26 26l0 0c0 0 1 1 2 1z"/>
<glyph unicode="&#57380;" d="M177 92l-118 0l0 360l165 0l101-102l0-78l59 0l0 102l-135 138l-249 0l0-480l266 0l0 60z m159-92l0 65c-45 8-80 48-80 95c0 53 43 96 96 96l64 0c53 0 96-43 96-96c0-51-40-93-90-96z m16 224c-35 0-64-29-64-64c0-35 29-64 64-64l16 0l0-32l43 32l5 0c35 0 64 29 64 64c0 35-29 64-64 64z"/>
<glyph unicode="&#57381;" d="M256 448c106 0 192-86 192-192c0-106-86-192-192-192c-106 0-192 86-192 192c0 106 86 192 192 192m0 64c-141 0-256-115-256-256c0-141 115-256 256-256c141 0 256 115 256 256c0 141-115 256-256 256z m0-256c-9 0-16 10-16 21l0 86c0 11 7 21 16 21c9 0 16-10 16-21l0-86c0-11-7-21-16-21z m95-64c-4 0-8 1-11 4l-92 64c-7 5-9 15-2 22c6 7 17 8 25 3l92-64c8-6 9-16 3-23c-4-4-9-6-15-6z"/>
<glyph unicode="&#57382;" d="M512 416l-96 96l-128 0l-288-288l224-224l288 288z m-127-82c-28 0-51 23-51 51c0 28 23 51 51 51c28 0 51-23 51-51c0-28-23-51-51-51z"/>
<glyph unicode="&#57384;" d="M505 67l-75 146c-18 36-48 94-66 129l-75 143c-18 36-48 36-66 0l-75-143c-18-36-48-95-66-130l-75-145c-18-36-1-67 38-67l141 0c38 0 102 0 140 0l141 0c39 0 56 31 38 67z m-217-3l-64 0l0 64l64 0z m0 112l-64 0l0 160l64 0z"/>
<glyph unicode="&#57385;" d="M256 507l-256-74l0-355l256-73l256 73l0 355z m-20-455l-197 56l0 273l197-57z m237 56l-197-56l0 272l197 57z m-217 252l-187 53l187 54l187-54z"/>
<glyph unicode="&#57386;" d="M0 384l256-128l256 128l-256 128z m256-175l-158 79l-98-32l256-128l256 128l-90 34z m0-128l-158 79l-98-32l256-128l256 128l-90 34z"/>
<glyph unicode="&#57387;" d="M284 185l0 28l57 0l0 57l114 0l0 86c0 15-13 28-28 28l-171 0c-16 0-37 10-47 21l-12 14c-11 12-32 22-48 22l-92 0c-16 0-29-13-29-29l0-284c0-16 13-28 29-28l227 0z m200 0l-57 0l0 57l-57 0l0-57l-57 0l0-57l57 0l0-57l57 0l0 57l57 0z"/>
<glyph unicode="&#57388;" d="M341 384l-170 0l0 28l170 0z m143-114l-456 0l0 29l456 0z m-86 57l-313 0l0 29l313 0z m57-114l-398 0l0 29l398 0z m-57-57l-284 0l0 29l284 0z m29-56l-370 0l0 28l370 0z"/>
<glyph unicode="&#57389;" d="M28 384l456 0l0 28l-456 0z m0-57l456 0l0 29l-456 0z m0-57l456 0l0 29l-456 0z m0-57l456 0l0 29l-456 0z m0-57l456 0l0 29l-456 0z m0-56l456 0l0 28l-456 0z"/>
<glyph unicode="&#57390;" d="M341 384l-313 0l0 28l313 0z m143-57l-456 0l0 29l456 0z m-114-57l-342 0l0 29l342 0z m85-57l-427 0l0 29l427 0z m-114-57l-313 0l0 29l313 0z m86-56l-399 0l0 28l399 0z"/>
<glyph unicode="&#57391;" d="M62 488l0 0l0 0z m194-80c27 0 49-22 49-48c0-18-10-34-25-42l0-224c50 9 90 43 117 70l-43 0l50 97l46-97l0 0l-27 0c-3-10-6-20-10-29c-8-21-21-39-36-55c-16-15-34-28-55-36c-20-9-42-14-66-14c-24 0-46 5-66 14c-21 8-39 21-55 36c-15 16-28 34-36 55c-4 9-7 19-10 29l-28 0l50 97l46-97l-41 0c26-27 66-61 116-70l0 224c-15 8-25 24-25 42c0 26 22 48 49 48z m0-24c-13 0-24-11-24-24c0-14 11-25 24-25c13 0 24 11 24 25c0 13-11 24-24 24z m0 0z"/>
<glyph unicode="&#57392;" d="M171 384l313 0l0 28l-313 0z m-143-57l456 0l0 29l-456 0z m114-57l342 0l0 29l-342 0z m-85-57l427 0l0 29l-427 0z m114-57l313 0l0 29l-313 0z m-86-56l399 0l0 28l-399 0z"/>
<glyph unicode="&#57393;" d="M51 216l133-62l-36-25c29-25 66-40 104-40c74 0 140 48 155 119l2 5l65 0l0 0c-3-11-13-47-13-48c-25-51-46-82-97-109c-48-26-66-24-112-27l0 0c-60 5-56 1-124 37c-13 7-23 19-34 28l-30-20z m199 253l0 0c60-5 57-1 125-37c12-6 22-18 33-27l30 22l13-139l-133 54l36 24c-31 23-28 23-75 36c-10 3-19 2-29 3c-9-1-18 0-27-3c-74-19-115-56-130-132l-65 0c9 70 48 134 110 170c22 12 48 17 72 26z"/>
<glyph unicode="&#57394;" d="M251 381c30 0 58-11 80-29l31 46c-30 24-69 39-111 39c-99 0-180-81-180-180c0-6 0-11 1-16l25-42l30 47c0 4-1 7-1 11c0 68 56 124 125 124m-207-124l111-1c13-1 17-9 11-20l-56-84c-6-11-17-10-24 0l-53 86c-6 10-2 19 11 19z m0 0z m362 69c9-14 18-27 26-42c0-1 1-15 0-15c-1-12 0-25-3-36c-15-50-31-84-76-114c-43-28-58-26-101-30l0 0c-47 0-73 13-111 38l32 47c21-19 49-30 79-30c69 0 125 56 125 125c-1 7 0 3-1 10z m53-58c13 0 18 9 11 19l-53 86c-7 11-17 11-24 0l-55-84c-7-10-3-19 10-19z"/>
<glyph unicode="&#57395;" d="M251 57c-26 0-52 5-77 16c-24 10-45 24-63 42c-19 19-33 40-43 64l52 22c8-17 18-32 31-45c13-14 28-24 45-31c35-15 76-15 111 0c17 7 32 17 45 31c13 13 23 28 30 45l53-22c-10-24-24-45-43-64c-18-18-39-32-63-42c-25-11-51-16-78-16m78 383c24-11 45-25 63-43c19-18 33-40 43-63l-53-23c-7 17-17 33-30 46c-13 13-28 23-45 30l-27 8l-57 0c-33-7-46-17-72-38c-13-13-23-29-31-46l-52 23c10 23 24 45 43 63c18 18 39 32 63 43c49 20 106 20 155 0z m50-214c5-7 12-7 16 0l30 43c4 6 12 17 16 23l30 44c4 6 2 11-6 11l-155 0c-8 0-11-5-7-11l30-44c5-6 12-17 16-23z m-256 43l28-38c5-7 13-17 17-23l29-39c5-6 2-11-5-11l-156 0c-7 0-10 5-5 11l29 39c4 6 12 16 17 23l29 38c4 7 12 7 17 0z m0 0z"/>
<glyph unicode="&#57396;" d="M28 484l444 0l0-444l-444 0z m167-102l90-91l-179 0l0-58l180 0l-91-92l79 0l120 121l-120 120z"/>
<glyph unicode="&#57397;" d="M398 185l-313 0l0 142l313 0z m57 114l0 85l-427 0l0-256l427 0l0 57l29 0l0 114z m-85-86l-256 0l0 86l256 0z"/>
<glyph unicode="&#57398;" d="M341 142l-28 29l0 284l28 0z m-142 29l-28-29l0 313l28 0z m-57 313l0-456l114 143l114-143l0 456z"/>
<glyph unicode="&#57399;" d="M217 482l88 0c28-11 57-20 83-34c50-27 89-97 99-149c6-28 0-58 0-88c-11-27-19-56-33-83c-27-50-97-89-149-99c-29-6-59 0-88 0c-97 40-60 15-119 63c-90 90-90 236 0 327l36 29z m75-76l-47 0c-14 0-16-8-16-13c0-2 0-2 0-4l10-181l2-8l9-7c15-1 4 0 32 0c9 0 15 2 17 16l9 175l1 5c0 2 0 2 0 4c0 5-2 13-17 13z m0 0z m-23-246l-18-3l-24-24c-5-24-5-12 0-36l24-24l18-3c25 0 45 20 45 45c0 25-20 45-45 45z m0 0z"/>
<glyph unicode="&#57400;" d="M287 207c-1-8-3-8-9-8l-24 0c-6 0-8 0-9 8l-9 164c0 7 0 6 0 8c0 6 4 6 7 6l45 0c3 0 8 0 8-6c0-2 0-1 0-8z m-21-124c-20 0-36 17-36 35c0 21 16 36 36 36c20 0 35-16 35-36c0-18-16-35-35-35m-4 399l0 0c77-3 148-37 192-102c37-55 34-76 40-130l0 0c-4-77-37-148-103-192c-54-37-75-34-129-39l0 0c-77 3-148 36-192 102c-37 54-34 75-40 129l0 0c3 77 37 148 102 192c25 17 55 24 83 35z m0-34c-109 0-198-89-198-198c0-109 89-198 198-198c109 0 198 89 198 198c0 109-89 198-198 198z"/>
<glyph unicode="&#57401;" d="M408 423c65-62 77-123 49-155c-43-48-88-93-134-139c-15-16-37-42-57-56l-16 0l-6 4c-8 8-8 21 0 29c1 2 146 146 182 188c9 10 10 47-46 100c-28 28-12 16-47 37c-7-3-15-5-21-9c-16-9-79-76-94-92c-49-47-94-92-127-127c-38-40-18-79-1-96l3-3c15-15 27-19 48 3c7 6 19 18 35 34c44 42 126 122 142 142c7 12 3 4 9 23l-3 6l-9 2c-7-3-13-6-19-10c-11-8-19-20-28-29c-37-37-74-74-111-110c-8-8-21-8-29 0c-7 8-7 21 1 29c1 1 75 72 131 132c37 38 71 34 90 17c42-47-5-92-37-124c-39-40-69-69-109-107c-15-15-28-28-34-34c-18-18-37-27-55-27c-18 0-35 8-51 25l-2 2c-17 16-66 84 0 153c33 35 79 80 127 128c26 26 53 52 80 79c49 49 84 38 139-15z"/>
<glyph unicode="&#57402;" d="M52 464l24 0l11-7l291-292c13-12 23-8 23 9l0 211c0 18 14 32 32 32c18 0 32-14 32-32l0-352l-352 0l-12 3l-17 17c-4 16-4 8 0 25l17 17l12 2l211 0c17 0 22 10 9 23l-292 292c-12 12-12 33 0 45z"/>
<glyph unicode="&#57403;" d="M110 183l-73 0l0 146l73 0z m146 0l-110 0l0 146l110 0z m0 219l0-292l219 146z"/>
<glyph unicode="&#57404;" d="M96 64l341 192l-341 192z"/>
<glyph unicode="&#57405;" d="M129 482l33 0l14-8l215-188c8-7 12-17 12-27c0-10-4-19-12-27l-215-188c-19-11-9-7-31-11l0 0c-21 2-28 8-40 24l0 28l10 12l185 162l-185 162l-10 12l0 28l10 13z"/>
<glyph unicode="&#57406;" d="M484 254c0-13-11-24-24-24c-13 0-24 11-24 24c0 13 11 24 24 24c13 0 24-11 24-24m-55 54c0-13-10-24-24-24c-13 0-23 11-23 24c0 14 10 24 23 24c14 0 24-10 24-24m-54 55c0-14-11-24-24-24c-13 0-24 10-24 24c0 13 11 24 24 24c13 0 24-11 24-24m-54 54c0-13-11-24-24-24c-13 0-24 11-24 24c0 13 11 24 24 24c13 0 24-11 24-24m84-193c14 0 24-11 24-24c0-13-10-24-24-24c-13 0-23 11-23 24c0 13 10 24 23 24m-54-55c13 0 24-10 24-23c0-14-11-24-24-24c-13 0-24 10-24 24c0 13 11 23 24 23m-54-54c13 0 24-11 24-24c0-13-11-24-24-24c-13 0-24 11-24 24c0 13 11 24 24 24m79 156c10-9 10-24 0-34c-9-9-24-9-33 0c-10 10-10 25 0 34c9 9 24 9 33 0m-76 0c9-9 9-24 0-34c-10-9-25-9-34 0c-10 10-10 25 0 34c9 9 24 9 34 0m-77 0c9-9 9-24 0-34c-9-9-25-9-34 0c-9 10-9 25 0 34c9 9 25 9 34 0m-77 0c9-9 9-24 0-34c-9-9-24-9-34 0c-9 10-9 25 0 34c10 9 25 9 34 0m-77 0c10-9 10-24 0-34c-9-9-24-9-34 0c-9 10-9 25 0 34c10 9 25 9 34 0"/>
<glyph unicode="&#57407;" d="M318 431l155-156c1 0 1 0 1-1c1 0 1-1 2-2c0 0 1-1 1-1c1-1 1-2 2-3c0 0 0-1 1-2c0 0 0-1 0-1c1-1 1-1 1-1c0-1 0-2 0-2c1-1 1-2 1-3c0-1 0-1 0-2c1-1 1-2 1-3c0 0 0-1 0-2c0-1 0-2 0-3c0 0 0-1 0-2c-1-1-1-1-1-2c0-1 0-2 0-2c-1-1-1-2-1-3c0 0 0-1-1-1c0 0 0-1 0-1c-1-1-1-2-1-2c-1-1-1-2-2-3c0 0-1-1-1-1c-1-1-1-2-2-3c0 0 0 0-1-1l-155-155c-7-7-15-10-24-10c-9 0-17 3-24 10c-12 13-12 34 0 47l99 99l-308 0c-32 1-46 46-15 62c4 3 10 3 15 4l308 0l-99 99c-12 13-12 34 0 47c13 13 34 13 48 0z"/>
<glyph unicode="&#57408;" d="M262 482c77-3 148-37 192-102c37-55 34-75 39-130l0 0c-3-77-36-148-102-192c-54-36-75-34-129-39c-128 0-232 103-232 231c0 128 104 232 232 232z m0 0z m-59-106l96-95l-188 0l0-61l188 0l-96-96l84 0l126 126l-126 126z"/>
<glyph unicode="&#57409;" d="M398 185l-313 0l0 142l313 0z m57 114l0 85l-427 0l0-256l427 0l0 57l29 0l0 114z m-341-86l114 86l28-29l114 29l-114-86l-28 29z"/>
<glyph unicode="&#57410;" d="M484 484l-456 0l0-456l456 0z m-29-427l-398 0l0 398l398 0z m-193 111c22 0 34 8 34 23l0 1c0 14-11 23-35 23l-54 0l0-47z m-10 98c22 0 34 7 34 22l0 1c0 14-11 22-33 22l-46 0l0-45z m-115 103l132 0c33 0 56-8 71-23c10-11 17-24 17-42l0-1c0-30-17-48-40-58c31-10 51-28 51-63l0-1c0-44-36-71-98-71l-133 0z"/>
<glyph unicode="&#57411;" d="M105 30l-60 0l0 452l60 0z m271 271l-120 0l0 91l120 0z m-240-271l331 0l0 452l-331 0z"/>
<glyph unicode="&#57412;" d="M105 30l-60 0l0 452l60 0z m302 452l0-181l-46 30l-45-30l0 181l-180 0l0-452l331 0l0 452z"/>
<glyph unicode="&#57413;" d="M370 284l-171 0l0 86l171 0z m-256 29l-57 0l0 28l57 0z m0-142l-57 0l0 28l57 0z m313 313l-370 0l0-114l-29 0l0-86l29 0l0-56l-29 0l0-86l29 0l0-114l427 0l0 399z"/>
<glyph unicode="&#57414;" d="M255 482c-116 0-210-86-210-191c0-63 34-119 86-154l-43-109l142 73c8-1 17-1 25-1c116 0 211 85 211 191c0 105-95 191-211 191"/>
<glyph unicode="&#57415;" d="M484 484l-456 0l0-342l114 0l0-110l160 110l182 0z m-57-57l0-228l-144 0l-20-11l-64-43l0 54l-114 0l0 228z"/>
<glyph unicode="&#57416;" d="M427 341l-29 0l0-28c0-44-41-85-85-85l-131 0l-40-41l0-16c0-29 29-57 57-57l142 0l86-86l0 86c28 0 57 28 57 57l0 113c0 29-29 57-57 57m-114 143l-228 0c-28 0-57-29-57-57l0-114c0-29 29-57 57-57c6 0-13 0 0 0l0-85l86 85l142 0c28 0 57 28 57 57l0 114c0 28-29 57-57 57"/>
<glyph unicode="&#57417;" d="M256 484c39 0 74-16 100-42c32-33 37-57 42-101l0 0c-5-44 0-23-16-64c-10-20-24-37-41-49l0-57l-171 0l0 10c0 25 0 47 0 47c-17 13-31 29-41 49c-23 54-20 92 9 144c4 8 11 14 17 21c26 26 61 42 101 42z m0-29c-31 0-59-12-81-33c-21-22-33-50-33-81c0-18 4-35 12-51c8-15 19-29 33-39c10-7 11-9 12-52l114 0l0 43l11 8c14 11 25 24 33 40c8 16 12 33 12 51c0 31-11 59-33 81c-21 21-50 33-80 33z m-86-398l29 0l0-29l113 0l0 29l29 0l0 28l-171 0z m0 57l171 0l0 28l-171 0z m0 57l29 0l0-86l-29 0z m142 0l29 0l0-86l-29 0z"/>
<glyph unicode="&#57418;" d="M161 249l-33-8l-11 42l59 17l40 0l0-200l-55 0z m194 3l-93 0l0 47l154 0l0-42l-88-157l-61 0z m86-195l-370 0l0 284l370 0z m-313 398l28 0l0-57l-28 0z m228 0l28 0l0-57l-28 0z m56-28l0 57l-85 0l0-57l-142 0l0 57l-85 0l0-57l-57 0l0-399l426 0l0 399z"/>
<glyph unicode="&#57419;" d="M407 332c-14-8-34-20-45-27c-11-7-21 1-21 16l0 63c0 16-12 28-28 28l-256 0c-16 0-29-12-29-28l0-256c0-16 13-28 29-28l256 0c16 0 28 12 28 28l0 64c0 16 10 23 21 16c11-7 31-19 45-27l52-31c14-8 25-2 25 13l0 187c0 15-11 22-25 14z"/>
<glyph unicode="&#57420;" d="M85 484c30 0 0 0 0 0l0-456l1 0c-29 0-58 29-58 60l0 339c0 34 28 57 57 57m399-200l-57 0l0 86l28 0c29 0 29-31 29-31z m0-142l-57 0l0-85l28 0c29 0 29 27 29 27z m0 29l-57 0l0 85l57 0z m-143 28l-170 0c0 0-2 18 3 25c5 8 22 13 39 20c17 7 21 10 21 10l1 16c0 0-7 5-9 21c-4-1-8 6-8 10c0 3 0 13 5 12c-1 8-2 15-1 18c1 13 14 27 34 27c20 0 33-14 34-27c0-3 0-10-1-18c5 1 5-9 5-12c0-4-4-11-8-10c-2-15-9-20-9-20l0-17c0 0 4-2 22-9c17-7 34-13 39-21c5-7 3-25 3-25m-1 285l-226 0l0-456l227 0c30 0 57 23 57 57l0 339c0 31-28 60-58 60"/>
<glyph unicode="&#57421;" d="M455 85l-398 0l0 342l398 0z m-427-28l456 0l0 398l-456 0z m313 227l-85 0l0 29l85 0z m-129 17l-65-45c-3-1-5-2-8-2c-5 0-9 2-12 6c-4 6-3 15 4 20l47 32l-47 29c-6 4-9 13-4 20c4 7 13 9 19 5l66-41c4-2 6-7 6-12c0-4-2-9-6-12m-127-187l342 0l0 284l-342 0z"/>
<glyph unicode="&#57422;" d="M438 96c8 0 15-7 15-15l0-30c0-9-7-15-15-15l-392 0l-11 4c-8 20-4 7-4 41l4 10l11 5z m-257 30c8 0 19 5 24 12l4 4c5 7 5 17-1 23l-46 48c-6 6-15 5-20-1l-3-3c-6-7-15-17-20-23l-46-49c-6-6-4-11 4-11z m279 342c17-17 18-44 4-62l0-1l-4-4l-219-219l-67 67l219 219c0 0 0 0 0 0c0 0 0 0 0 0l4 4l1 0c18 14 45 13 62-4z"/>
<glyph unicode="&#57423;" d="M465 100c9 0 16-7 16-16l0-32l-5-11l-11-5l-416 0l-11 5c-9 21-5 7-5 43c0 9 7 16 16 16z m0 0z m-249 380l89 0l142-337l-99 0l-24 60l-129 0l-24-60l-97 0z m44-110l-38-95l75 0z"/>
<glyph unicode="&#57424;" d="M351 378l122-95c6-5 10-13 11-22c0-8-4-16-10-22l-122-105c-6-5-12-7-19-7c-8 0-16 3-21 10c-11 12-9 30 3 40l95 83l-94 73c-13 10-15 28-5 40c9 12 27 15 40 5z m-150-5c10-12 8-30-5-40l-94-73l95-83c12-10 14-28 3-40c-5-7-13-10-21-10c-7 0-13 2-19 7l-122 105c-6 6-10 14-10 22c1 9 5 17 11 22l122 95c13 10 31 7 40-5z"/>
<glyph unicode="&#57425;" d="M253 404c-99 0-180-81-180-180c0-100 81-181 180-181c100 0 181 81 181 181c0 99-81 180-181 180m0-60c67 0 121-54 121-120c0-67-54-121-121-121c-66 0-120 54-120 121c0 66 54 120 120 120m-9-129c-9 0-15 7-15 15l0 30c0 8 6 15 15 15c8 0 15-7 15-15l0-30c0-8-7-15-15-15m49-39c-4 0-7 1-10 3l-49 39c-6 5-7 15-2 21c5 7 15 8 21 3l49-40c7-5 8-14 2-21c-3-3-7-5-11-5m164 276c35-36 40-90 13-130l-142 143c40 26 94 22 129-13z m-267 13l-143-143c-26 40-22 94 13 130c35 35 90 39 130 13z m236-433c-6-6-15-6-21 0l-43 43c-6 6-6 15 0 21c6 6 16 6 22 0l42-42c6-6 6-16 0-22m-335 0c6-6 16-6 22 0l42 43c6 6 6 15 0 21c-6 6-15 6-21 0l-43-42c-6-6-6-16 0-22"/>
<glyph unicode="&#57426;" d="M313 469l-114 0l0-142l-57 0l114-114l114 114l-57 0z m110-113l-53 0l0-29l34 0l37-85l-100 0c0-47-38-86-85-86c-47 0-85 39-85 86l-99 0l36 85l34 0l0 29l-53 0l-61-143l0-170l456 0l0 170z"/>
<glyph unicode="&#57427;" d="M199 228l114 0l0 142l57 0l-114 114l-114-114l57 0z m114 113l-114 0l0-28l114 0z m110 0l-82 0l0-28l63 0l37-85l-100 0c0-48-38-86-85-86c-47 0-85 38-85 86l-99 0l36 85l63 0l0 28l-82 0l-61-142l0-171l456 0l0 171z"/>
<glyph unicode="&#57428;" d="M56 484c15 0 28-13 28-28c0-2-1-4-2-6l29-20l361-48l-38-185l-235-10l-19-59c9-7 16-17 18-28l145 0c5 20 23 35 45 35c25 0 46-21 46-46c0-26-21-46-46-46c-20 0-36 11-43 28l-150 0c-7-17-24-28-43-28c-26 0-48 21-48 47c0 26 22 47 48 47c0 0 1 0 1 0l16 49l-17-1l-57 222l-33 22c-2 0-4-1-6-1c-15 0-28 13-28 28c0 15 13 28 28 28z"/>
<glyph unicode="&#57429;" d="M370 28l-313 0l0 370l114 0l0-57l-57 0l0-256l199 0l0 29l57 0z m-171 143l0 256l114 0l0-86l85 0l0-170z m147 313l-204 0l0-370l313 0l0 252z"/>
<glyph unicode="&#57430;" d="M455 57l-256 0l0 199l194 0l62-53z m-284 85l-86 0l0 228l256 0l0-86l-170 0z m113 313l-28-57l-85 0l-29 57z m119-171l-5 0l0 171l-92 0l7 29l-199 0l7-29l-93 0l0-370l143 0l0-57l313 0l0 188z m24-142l-199 0l0 29l199 0z m0-57l-199 0l0 29l199 0z m-57 114l-142 0l0 29l142 0z"/>
<glyph unicode="&#57431;" d="M57 455l284 0c16 0 29-13 29-28l0-48c64-6 114-60 114-125c0-66-50-119-114-126l0-43l-2-11l-16-15l-11-2l-284 0l-11 2l-15 15l-3 11l0 342c0 15 13 28 29 28z m313-132l0-138c32 6 57 35 57 69c0 34-25 62-57 69z m0 0z m-270 75c-8 0-15-6-15-14l0-256c0-8 7-14 15-14c7 0 14 6 14 14l0 256c0 8-7 14-14 14z"/>
<glyph unicode="&#57432;" d="M417 97c-4-9-11-15-17-15c-6 0-13 4-18 10l-34 48l0 2l-24 32l-5 8c7 8 18 18 33 18c13 0 28-9 43-25c28-30 29-60 22-78m-277-3c-14-17-29-15-37 3c-7 18-6 48 22 78c16 16 30 25 44 25c14 0 26-10 33-18l-21-29l-8-11l0-1z m286 110c-24 25-49 38-74 38c-27 0-46-13-60-26l-4 6l11 16l54 34l79 126l0 86l-171-226l-170 226l0-86l77-126l53-34l12-16l-4-7c-14 13-34 27-60 27c-26 0-51-13-75-38c-42-44-42-94-30-124c11-25 37-41 61-41c12 0 49 26 51 28l19 30l66 89l67-92l20-29c2-1 37-26 48-26c24 0 48 16 58 41c13 30 14 80-28 124"/>
<glyph unicode="&#57433;" d="M156 427c0-29 0 0 0 0l0-57l57 0l0 57l86 0l0-57l57 0l0 57c0 0 0-29 0 0c0 57-29 57-57 57l-86 0c-57 0-57-29-57-57m200-327c0-8-7-15-15-15c-7 0-14 7-14 15l0 210c0 8 7 15 14 15c8 0 15-7 15-15z m-86 0c0-8-6-15-14-15c-8 0-14 7-14 15l0 210c0 8 6 15 14 15c8 0 14-7 14-15z m-85 0c0-8-7-15-14-15c-8 0-15 7-15 15l0 210c0 8 7 15 15 15c7 0 14-7 14-15z m256 284c0 8-7 14-14 14l-342 0c-7 0-14-6-14-14l0-28c0-8 7-15 14-15c8 0 15-6 15-14l0-284c0-8 6-15 14-15l284 0c8 0 14 7 14 15l0 284c0 8 7 14 15 14c7 0 14 7 14 15z"/>
<glyph unicode="&#57434;" d="M258 478c15-2 31 0 45-5c101-31 144-73 175-174c4-15 3-30 4-45l0 0c-1-15 0-31-4-45c-31-101-74-144-175-175c-14-4-30-3-45-4c-15 1-30 0-45 4c-101 31-143 74-174 175c-5 14-3 30-5 45l0 0c3 74 35 143 99 186c24 16 53 22 80 33z m0-34c-105 0-190-86-190-190c0-105 85-190 190-190c105 0 190 85 190 190c0 104-85 190-190 190z m0 0z m110-129l-49 48l-61-61l-61 61l-48-48l61-61l-61-61l48-49l61 62l61-62l49 49l-62 61z"/>
<glyph unicode="&#57435;" d="M284 171l0 28l171 0l0 142c0 16-13 29-28 29l-171 0c-16 0-37 9-47 21l-12 14c-11 12-32 22-48 22l-92 0c-16 0-29-13-29-29l0-284c0-16 13-29 29-29l227 0z m29 0l171 0l0-57l-171 0z"/>
<glyph unicode="&#57436;" d="M400 198c-17 0-33-5-45-14l-151 78l149 77c13-10 29-16 47-16c44 0 80 36 80 80c0 43-36 79-80 79c-43 0-79-36-79-79c0-1 0-2 0-3l-149-78c-13 10-29 16-47 16c-44 0-80-35-80-79c0-44 36-80 80-80c20 0 38 8 52 20l145-75c-1-2-1-3-1-5c0-44 36-79 79-79c44 0 80 35 80 79c0 44-36 79-80 79"/>
<glyph unicode="&#57437;" d="M416 48l-320 0l0 64l320 0z m-320 0l-64 0l0 128l64 0z m384 0l-64 0l0 128l64 0z m-64 288l-64 0l0 128l-192 0l0-128l-64 0l167-166z"/>
<glyph unicode="&#57438;" d="M30 31l11 73l10 74l64-63l63-63l-74-11z m359 274l-190-190l-21 21l190 190l-43 43l-190-190l-21 21l190 190l-21 21l-211-211l127-127l211 211z m87 42c11 11 11 30-1 41l-84 85c-12 12-30 12-41 1c-1-1-2-2-2-3l-1 0l-40-40l126-127l41 41l-1 0c1 1 2 1 3 2"/>
<glyph unicode="&#57439;" d="M271 90c-20 0-36 16-36 35c0 20 16 36 36 36c20 0 35-16 35-36c0-19-16-35-35-35m22 118c0-8-1-9-8-9l-31 0c-8 0-9 1-9 9l0 52c0 10 15 12 30 17c15 5 30 14 30 36c0 20-12 30-35 30c-26 0-48-14-53-14c-2 0-4 3-4 5l-11 28c-1 2-1 3-1 5c0 11 50 25 78 25c51 0 82-33 82-79c0-54-43-68-68-77z m-31 274l0 0c77-3 148-37 192-102c37-55 34-76 40-130l0 0c-4-77-37-148-103-192c-54-37-75-34-129-39l0 0c-77 3-148 36-192 102c-37 54-34 75-40 129l0 0c3 77 37 148 102 192c25 17 55 24 83 35z m0-34c-109 0-198-89-198-198c0-109 89-198 198-198c109 0 198 89 198 198c0 109-89 198-198 198z"/>
<glyph unicode="&#57440;" d="M362 464c7 0 13 0 21-1c44-4 95-45 101-123l0-26c-5-74-62-166-226-281c-164 115-220 207-226 281l0 26c6 78 57 119 102 123c7 1 14 1 20 1c52 0 76-22 104-56c28 34 53 56 104 56"/>
<glyph unicode="&#57441;" d="M181 136c0-34-21-61-45-61c-25 0-46 27-46 61l0 60c0 33 21 60 46 60c24 0 45-27 45-60z m241 0c0-34-21-61-46-61c-24 0-45 27-45 61l0 60c0 33 21 60 45 60c25 0 46-27 46-60z m45 15c-8 0-15 6-15 15l0 60c0 110-84 196-190 196c-110 0-202-90-202-196l0-60c0-9-7-15-15-15c-8 0-15 6-15 15l0 60c0 122 106 226 232 226c123 0 220-99 220-226l0-60c0-9-7-15-15-15"/>
<glyph unicode="&#57442;" d="M228 313c0-16-13-29-29-29l-142 0c-16 0-29 13-29 29l0 142c0 16 13 29 29 29l142 0c16 0 29-13 29-29z m256 0c0-16-13-29-29-29l-142 0c-16 0-29 13-29 29l0 142c0 16 13 29 29 29l142 0c16 0 29-13 29-29z m-256-256c0-16-13-29-29-29l-142 0c-16 0-29 13-29 29l0 142c0 16 13 29 29 29l142 0c16 0 29-13 29-29z m256 0c0-16-13-29-29-29l-142 0c-16 0-29 13-29 29l0 142c0 16 13 29 29 29l142 0c16 0 29-13 29-29z"/>
<glyph unicode="&#57443;" d="M142 398c0-15-13-28-28-28l-57 0c-16 0-29 13-29 28l0 57c0 16 13 29 29 29l57 0c15 0 28-13 28-29z m0-170c0-16-13-29-28-29l-57 0c-16 0-29 13-29 29l0 56c0 16 13 29 29 29l57 0c15 0 28-13 28-29z m0-171c0-16-13-29-28-29l-57 0c-16 0-29 13-29 29l0 57c0 15 13 28 29 28l57 0c15 0 28-13 28-28z m171 341c0-15-13-28-29-28l-56 0c-16 0-29 13-29 28l0 57c0 16 13 29 29 29l56 0c16 0 29-13 29-29z m0-170c0-16-13-29-29-29l-56 0c-16 0-29 13-29 29l0 56c0 16 13 29 29 29l56 0c16 0 29-13 29-29z m0-171c0-16-13-29-29-29l-56 0c-16 0-29 13-29 29l0 57c0 15 13 28 29 28l56 0c16 0 29-13 29-28z m171 341c0-15-13-28-29-28l-57 0c-15 0-28 13-28 28l0 57c0 16 13 29 28 29l57 0c16 0 29-13 29-29z m0-170c0-16-13-29-29-29l-57 0c-15 0-28 13-28 29l0 56c0 16 13 29 28 29l57 0c16 0 29-13 29-29z m0-171c0-16-13-29-29-29l-57 0c-15 0-28 13-28 29l0 57c0 15 13 28 28 28l57 0c16 0 29-13 29-28z"/>
<glyph unicode="&#57444;" d="M191 239l48-48l-100-100l58-57l-163 0l0 163l57-58z m287 239l-163 0l58-57l-100-100l48-48l100 100l57-58z"/>
<glyph unicode="&#57445;" d="M30 105c0-16 14-30 30-30l392 0c16 0 30 14 30 30l0 241c0 17-14 30-30 30l-181 0c-17 0-39 11-50 23l-13 15c-11 13-33 23-50 23l-98 0c-16 0-30-14-30-30z"/>
<glyph unicode="&#57446;" d="M219 451c78-27 155 10 155 10l122-193c0 0-78-37-155-10c-85 30-123 18-159-26l92-149l2-7l-3-15l-6-6c-3-2-7-3-11-3c-13 4-7 1-17 10l-206 334c-6 10-3 22 7 28c6 4 14 4 20 0c36 44 75 56 159 27z"/>
<glyph unicode="&#57447;" d="M228 484l199 0l-171-171l142 0l-284-285l114 228l-143 0z"/>
<glyph unicode="&#57448;" d="M398 185l-313 0l0 142l313 0z m57 114l0 85l-427 0l0-256l427 0l0 57l29 0l0 114z m-171-86l-170 0l0 86l85 0z"/>
<glyph unicode="&#57449;" d="M217 482l88 0c28-11 57-20 83-34c50-27 89-97 99-149c6-28 0-58 0-88c-11-27-19-56-33-83c-27-50-97-89-149-99c-29-6-59 0-88 0c-97 40-60 15-119 63c-90 90-90 236 0 327l36 29z m43-76c-22 0-91-12-91-34c0-2 0-5 2-7l11-29c1-6 7-11 12-11c3 0 6 1 12 4c9 4 26 11 44 11c30 0 30-18 30-24c0-19-10-26-27-32c-3-1-6-2-9-3c-16-5-7-1-25-13c-8-27-3-6-3-65l1-8l9-8c18-2 5-1 40-1l8 1l8 8c2 16 1 5 1 33c27 9 72 28 72 87c0 55-38 91-95 91z m-9-246c-25 0-45-20-45-45c0-25 20-45 45-45c25 0 45 20 45 45c0 25-20 45-45 45z"/>
<glyph unicode="&#57450;" d="M263 467l88-67l0 60l60 0l0-106l85-65l-37-48l-25 19l0-220l-342 0l0 220l-25-19l-37 48z m0-80l-138-105l0-208l78 0l0 127l120 0l0-127l77 0l0 208z"/>
<glyph unicode="&#57451;" d="M316 70l-120 0l0 151l120 0z m91 284l0 108l-60 0l0-62l-86 67l-231-178l44-48l32 19l0-220l331 0l0 220l24-19l33 48z"/>
<glyph unicode="&#57452;" d="M484 441l-456 0l0-370l456 0z m-57-313l-342 0l0 256l342 0z m-192 192c0-23-20-43-43-43c-24 0-43 20-43 43c0 24 19 43 43 43c23 0 43-19 43-43m-121-164l284 0l0 104l-45 81l-61-132l-36 37c0 0-50-18-66-47c-27 14-41 0-41 0z"/>
<glyph unicode="&#57453;" d="M291 249c0-16-12-28-28-28c-16 0-28 12-28 28c0 16 12 28 28 28c16 0 28-12 28-28m-92-93l199 0l0 73l-31 57l-43-93l-25 26c0 0-35-13-47-33c-18 10-28 0-28 0z m228-28l-256 0l0 171l256 0z m-313 114l-29 0l0 142l285 0l0-28l-256 0z m313 114l0 85l-399 0l0-256l86 0l0-114l370 0l0 285z"/>
<glyph unicode="&#57454;" d="M272 338c-17 0-30 14-30 30c0 16 13 29 30 29c16 0 29-13 29-29c0-16-13-30-29-30m50-194c0-4 0-5-5-5l-90 0c-5 0-5 1-5 5l0 23c0 4 0 5 5 5l22 0l0 110l-23 0c-4 0-5 1-5 5l0 23c0 4 1 5 5 5l64 0c4 0 5-1 5-5l0-138l22 0c5 0 5-1 5-5z m-60 338l0 0c77-3 148-37 192-102c37-55 34-76 40-130l0 0c-4-77-37-148-103-192c-54-37-75-34-129-39l0 0c-77 3-148 36-192 102c-37 54-34 75-40 129l0 0c3 77 37 148 102 192c25 17 55 24 83 35z m0-34c-109 0-198-89-198-198c0-109 89-198 198-198c109 0 198 89 198 198c0 109-89 198-198 198z"/>
<glyph unicode="&#57455;" d="M424 414c90-90 90-236 0-326c-90-90-236-90-326 0c-90 90-90 236 0 326c90 90 236 90 326 0z m0 0z m-167 28l-17-3l-24-24c-5-23-5-11 0-35l24-23c23-5 11-5 34 0l24 23c5 24 5 12 0 35l-24 24z m23-103l-80 0c-9 0-14-4-14-14l0-29c0-9 5-13 14-13l21 0l0-123l-21 0l-6-1l-7-7c-2-16 0-4 0-35l0-6l7-7l6-1l114 0c10 0 14 5 14 14l0 29c0 9-4 14-14 14l-21 0l0 165c0 10-4 14-13 14z"/>
<glyph unicode="&#57456;" d="M484 484l-456 0l0-456l456 0z m-29-427l-398 0l0 398l398 0z m-129 284l15 57l-85 0l-16-57z m-93-28l-62-199l85 0l62 199z"/>
<glyph unicode="&#57457;" d="M379 480c15-6 31-11 45-18c27-15 47-51 53-80c3-15 0-31 0-47c-12-32-26-71-63-85c-21-7-44-9-66-14l-33 7l-34-34l24-24l-50-50l-26 25l-28-25l0-50c-82-29-55-6-94-50l0 0l-75 25c52 157 6 56 208 258c-2 11-8 22-7 33c3 41 15 90 55 111c14 7 30 12 44 18z m-14-81c-8-8-8-22 0-31c9-8 23-8 31 0c9 9 9 23 0 31c-8 9-22 9-31 0z"/>
<glyph unicode="&#57458;" d="M484 484l-456 0l0-456l456 0z m-29-427l-398 0l0 398l398 0z m-307 92l40 47c25-20 54-31 84-31c19 0 29 7 29 18l0 1c0 10-8 16-43 24c-55 13-98 29-98 82l0 1c0 48 38 82 100 82c44 0 79-11 107-34l-36-51c-24 17-50 26-72 26c-18 0-26-8-26-17l0-1c0-11 8-17 44-25c60-13 97-32 97-80l0-1c0-53-42-84-105-84c-46 0-89 14-121 43m279 79l-342 0l0 28l342 0z"/>
<glyph unicode="&#57459;" d="M256 218l203 179c-1 1-2 1-4 1l-398 0c-1 0-2 0-3 0z m228 152c0 3-1 6-2 9l-144-126l142-124c2 4 4 8 4 13z m-453 11c-2-4-3-7-3-11l0-228c0-4 1-8 3-11l143 122z m286-147l-61-54l-61 54l-140-120c1 0 1 0 2 0l397 0z"/>
<glyph unicode="&#57460;" d="M370 373l117-117l-117-117l0 89l-171 0l0 56l171 0z m-342 111l285 0l0-143l-57 0l0 86l-171 0l0-342l171 0l0 86l57 0l0-143l-285 0z"/>
<glyph unicode="&#57461;" d="M172 434l0-78c-36-27-59-69-59-117c3-34 1-47 24-81c45-67 137-84 203-39c39 26 65 73 64 120c0 12 0 24-4 35c-8 21-18 41-31 59c-6 10-16 15-24 23l0 78c73-36 107-84 124-163c2-10 2-21 2-32l1 0l0 0c-3-70-34-136-94-176c-51-34-70-32-120-37c-70 3-136 34-176 94c-34 51-32 70-37 119c0 87 52 162 127 195z m130-212c0-17-14-30-30-30l-27 0c-17 0-30 13-30 30l0 230c0 16 13 30 30 30l27 0c16 0 30-14 30-30z"/>
<glyph unicode="&#57462;" d="M484 71l-143 0l0 114l143 0z m-29 114l-28 0l0 28l-29 0l0-28l-28 0l0 57l85 0z m-142 28l28 0l0 57l114 0l0 86c0 15-13 28-28 28l-171 0c-16 0-37 10-47 21l-12 14c-11 12-32 22-48 22l-92 0c-16 0-29-13-29-29l0-284c0-16 13-28 29-28l256 0z"/>
<glyph unicode="&#57463;" d="M331 306l-150 0l0 42c0 40 34 74 75 74c41 0 75-34 75-74z m-54-211l-50 0l13 69c-8 5-13 13-13 22c0 14 11 25 25 25c14 0 25-11 25-25c0-9-5-17-13-22z m115 211l0 42c0 74-61 134-136 134c-75 0-136-60-136-134l0-42l-30 0l0-271l332 0l0 271z"/>
<glyph unicode="&#57464;" d="M256 292c-27 0-50 22-50 49c0 28 23 50 50 50c27 0 50-22 50-50c0-27-23-49-50-49m0 192c-63 0-156-29-156-143c0-57 125-256 156-313c31 57 156 256 156 313c0 114-93 143-156 143"/>
<glyph unicode="&#57465;" d="M85 484l329 0l0-45l-24 0c-3-86-35-142-89-161l0-47c54-18 85-73 89-158l24 0l0-45l-329 0l0 45l29 0c4 85 35 140 89 158l0 47c-54 19-86 75-89 161l-29 0z m283-45l-232 0c4-56 11-99 60-133c8-5 20-8 30-10l0-82c-70-15-84-79-90-141l27 0c57 67 26 32 91 107c64-75 34-40 91-107l23 0c-3 59-21 123-81 138l-9 3l0 82c42 8 66 36 79 76c5 14 6 30 9 44z m-65-93l-94 0l23-27l24-28l23 28z"/>
<glyph unicode="&#57466;" d="M277 429c0-8-7-15-15-15c-8 0-15 7-15 15l0 39c0 8 7 16 15 16c8 0 15-8 15-16z m-93-8c4-7 2-17-5-21c-7-4-16-1-21 6l-19 34c-4 7-2 17 5 21c7 4 16 1 20-7z m-65-51c7-4 10-13 6-20c-4-7-14-10-21-5l-33 19c-8 4-11 13-7 20c4 7 14 10 21 5z m-36-79c8 0 15-7 15-15c0-8-7-15-15-15l-39 0l-11 5l-5 10l0 0l5 10l11 5z m8-87c8 4 17 2 21-5c4-7 1-16-6-21l-33-19c-8-4-17-2-21 5c-4 7-2 16 6 21z m51-71c4 7 14 10 20 6c7-4 10-13 5-21l-19-33c-4-8-13-10-20-6c-7 4-10 13-5 21z m79-36c0 8 7 15 15 15c8 0 15-7 15-15l0-39c0-8-7-15-15-15c-8 0-15 7-15 15z m87 8c-4 8-2 17 5 21c7 4 16 1 21-6l19-33c4-8 2-17-5-21c-7-4-16-2-21 6z m71 51c-7 4-10 14-6 21c4 7 13 9 21 5l33-20c8-4 11-13 6-20c-4-7-13-10-20-5z m75 109l11-4l4-11l0 0l-4-10c-23-9-7-4-50-4c-8 0-15 6-15 14c0 8 7 15 15 15z m-47 57c-8-4-17-2-21 5c-4 7-1 17 6 21l33 19c8 4 17 2 21-5c4-7 2-16-6-20z m-51 71c-4-7-14-10-21-6c-7 4-9 14-4 21l19 33c4 8 13 11 20 7c7-4 10-14 5-21z"/>
<glyph unicode="&#57467;" d="M142 398c0-15-13-28-28-28l-57 0c-16 0-29 13-29 28l0 57c0 16 13 29 29 29l57 0c15 0 28-13 28-29z m0-170c0-16-13-29-28-29l-57 0c-16 0-29 13-29 29l0 56c0 16 13 29 29 29l57 0c15 0 28-13 28-29z m0-171c0-16-13-29-28-29l-57 0c-16 0-29 13-29 29l0 57c0 15 13 28 29 28l57 0c15 0 28-13 28-28z m342 341c0-15-13-28-29-28l-227 0c-16 0-29 13-29 28l0 57c0 16 13 29 29 29l227 0c16 0 29-13 29-29z m0-170c0-16-13-29-29-29l-227 0c-16 0-29 13-29 29l0 56c0 16 13 29 29 29l227 0c16 0 29-13 29-29z m0-171c0-16-13-29-29-29l-227 0c-16 0-29 13-29 29l0 57c0 15 13 28 29 28l227 0c16 0 29-13 29-28z"/>
<glyph unicode="&#57468;" d="M484 398c0-15-13-28-29-28l-398 0c-16 0-29 13-29 28l0 57c0 16 13 29 29 29l398 0c16 0 29-13 29-29z m0-170c0-16-13-29-29-29l-398 0c-16 0-29 13-29 29l0 56c0 16 13 29 29 29l398 0c16 0 29-13 29-29z m0-171c0-16-13-29-29-29l-398 0c-16 0-29 13-29 29l0 57c0 15 13 28 29 28l398 0c16 0 29-13 29-28z"/>
<glyph unicode="&#57469;" d="M495 392c0-17-14-31-31-31l-271 0c-16 0-30 14-30 31c0 16 14 30 30 30l271 0c17 0 31-14 31-30m0-151c0-17-14-30-31-30l-271 0c-16 0-30 13-30 30c0 16 14 30 30 30l271 0c17 0 31-14 31-30m0-151c0-16-14-30-31-30l-271 0c-16 0-30 14-30 30c0 17 14 30 30 30l271 0c17 0 31-13 31-30m-418 392l19 0l0-108l-23 0l0 63c0 1 0 2 0 4c0 2 1 4 1 6c0 2 0 4 0 6c0 2 0 3 0 5c0 0-1-1-1-1c-2-2-3-3-5-4c0-1-1-2-2-2l-12-10l-11 13z m26-277l-72 0l0 16l25 27c3 3 6 6 9 9c2 3 5 6 7 9c1 2 3 5 4 8c1 3 1 6 1 9c0 4-1 7-3 9c-2 2-5 3-9 3c-3 0-7-1-11-3c-3-2-7-5-11-8l-12 14c2 2 4 4 7 6c2 2 5 4 7 5c3 1 7 3 10 3c4 1 7 2 12 2c5 0 10-1 14-2c4-2 7-4 10-6c3-3 5-6 7-10c1-4 2-8 2-13c0-4-1-8-2-12c-2-3-4-7-6-11c-3-4-6-7-9-11c-3-4-7-7-11-11l-13-13l0-1l44 0z m-38-64c5 0 10-1 14-2c4-1 8-3 11-5c3-2 6-5 7-8c2-3 3-7 3-11c0-4-1-7-2-10c-1-3-3-6-5-8c-2-2-4-4-7-5c-3-2-6-3-9-4l0 0c8-1 15-4 19-8c5-4 7-10 7-17c0-5-1-9-2-13c-2-4-5-8-8-11c-4-2-8-5-14-6c-11-3-5-2-18-3l0 0c-11 1-6 0-17 2c-5 0-9 2-14 4l0 19c2-1 5-2 7-3c3-1 5-1 7-2c3-1 5-1 8-1c2-1 4-1 6-1c5 0 8 1 11 1c3 1 5 2 7 4c1 1 2 3 3 5c1 2 1 4 1 6c0 2 0 4-1 6c-1 2-2 4-5 5c-2 1-4 2-7 3c-4 0-8 1-13 1l-7 0l0 16l7 0c5 0 8 0 11 1c3 1 6 2 8 3c1 2 3 3 3 5c1 2 2 4 2 6c0 4-2 7-4 9c-2 2-6 3-11 3c-3 0-5 0-7 0c-2-1-4-1-6-2c-1-1-3-2-4-3c-2 0-3-1-4-2l-12 15c2 2 5 3 7 4c2 2 5 3 8 4c3 1 6 1 9 2c3 0 7 1 11 1z"/>
<glyph unicode="&#57470;" d="M71 441c24 0 43-19 43-43c0-23-19-42-43-42c-23 0-43 19-43 42c0 24 20 43 43 43z m413-57c0-16-13-28-29-28l-256 0c-16 0-28 12-28 28c0 16 12 28 28 28l256 0c16 0 29-12 29-28m-370-128c0-24-19-43-43-43c-23 0-43 19-43 43c0 24 20 43 43 43c24 0 43-19 43-43m370-14c0-16-13-29-29-29l-256 0c-16 0-28 13-28 29c0 15 12 28 28 28l256 0c16 0 29-13 29-28m-370-128c0-24-19-43-43-43c-23 0-43 19-43 43c0 23 20 42 43 42c24 0 43-19 43-42m370-14c0-16-13-29-29-29l-256 0c-16 0-28 13-28 29c0 15 12 28 28 28l256 0c16 0 29-13 29-28"/>
<glyph unicode="&#57471;" d="M185 186l-137 91l208 169l208-169l-137-91l157-136l0 240l-228 194l-228-194l0-240z m273-152l-163 143l-78 0l-163-143z"/>
<glyph unicode="&#57472;" d="M28 455l0-341l143-57l0 341z m313 0l0-341l143-57l0 341z m-28 0l0-341l-114-57l0 341z"/>
<glyph unicode="&#57473;" d="M313 256c0-31-26-57-57-57c-31 0-57 26-57 57l0 171c0 31 26 57 57 57c31 0 57-26 57-57z m85 0l0 57l-28 0l0-57c0-63-51-114-114-114c-63 0-114 51-114 114l0 57l-28 0l0-57c0-69 49-126 114-139l0-32l-86-28l0-29l228 0l0 29l-86 28l0 32c65 13 114 70 114 139"/>
<glyph unicode="&#57474;" d="M402 219l-292 0l0 74l292 0z m37 256l-366 0c-20 0-36-16-36-36l0-366c0-20 16-36 36-36l366 0c20 0 36 16 36 36l0 366c0 20-16 36-36 36"/>
<glyph unicode="&#57475;" d="M28 313l456 0l0-114l-456 0z"/>
<glyph unicode="&#57476;" d="M356 114l-200 0l0 284l200 0z m-100-65c-12 0-22 10-22 22c0 12 10 22 22 22c12 0 22-10 22-22c0-12-10-22-22-22m-43 406l86 0c8 0 14-6 14-14c0-8-6-14-14-14l-86 0c-8 0-14 6-14 14c0 8 6 14 14 14m143 29l-200 0c-31 0-56-26-56-57l0-342c0-31 25-57 56-57l200 0c31 0 56 26 56 57l0 342c0 31-25 57-56 57"/>
<glyph unicode="&#57477;" d="M398 114l-284 0l0 313l284 0z m-114-57l-56 0l0 28l56 0z m114 427l-284 0c-32 0-57-26-57-57l0-342c0-31 25-57 57-57l284 0c32 0 57 26 57 57l0 342c0 31-25 57-57 57"/>
<glyph unicode="&#57478;" d="M455 398l-28 0l0 29l28 0z m0-85l-28 0l0 28l28 0z m0-85l-28 0l0 28l28 0z m0-86l-28 0l0 29l28 0z m0-85l-28 0l0 28l28 0z m-57 227l-284 0l0 143l284 0z m0-199l-284 0l0 143l284 0z m-313 313l-28 0l0 29l28 0z m0-85l-28 0l0 28l28 0z m0-85l-28 0l0 28l28 0z m0-86l-28 0l0 29l28 0z m0-85l-28 0l0 28l28 0z m-57-29l456 0l0 456l-456 0z"/>
<glyph unicode="&#57479;" d="M151 422l0-267c-5 1-10 2-15 2c-42 0-76-27-76-61c0-33 34-60 76-60c39 0 70 24 74 54l1 0l0 283l181 37l0-194c-5 0-10 1-16 1c-41 0-75-27-75-60c0-34 34-61 75-61c39 0 71 24 75 55l1 0l0 331z"/>
<glyph unicode="&#57480;" d="M419 439c0 26-17 34-38 19l-120-89c-21-15-38-25-38-21c0 4-21 7-46 7l-37 0c-26 0-47-21-47-47l0-102c0-26 21-37 47-37l37 0c25 0 46-4 46-2c0 1 17-13 38-28l120-90c21-15 38-8 38 18z"/>
<glyph unicode="&#57481;" d="M402 219l-109 0l0-109l-74 0l0 109l-109 0l0 74l109 0l0 109l74 0l0-109l109 0z m37 256l-366 0c-20 0-36-16-36-36l0-366c0-20 16-36 36-36l366 0c20 0 36 16 36 36l0 366c0 20-16 36-36 36"/>
<glyph unicode="&#57482;" d="M211 484l87 0c96-40 59-15 117-63c89-89 89-233 0-322c-58-48-21-23-117-62c-29 0-59-6-87 0c-91 18-162 89-180 180c-6 28 0 58 0 87c30 85 35 95 98 146z m-33-91l0-266c152 89 76 45 228 133l-114 67z"/>
<glyph unicode="&#57483;" d="M305 482l163-163c-118-39-62-7-163-108l27-27l-27-81l-124 123l43-42c-75-75-17-20-194-141c120 179 65 120 140 195l-82 81l82 27l27-27l81 82z"/>
<glyph unicode="&#57484;" d="M402 24c-20-4-151 1-257 122c-113 127-102 271-97 280c9 17 27 36 51 51c3 2 7 3 11 4c15 3 30-6 40-12l5-3c13-8 29-94 29-105c-1-12-14-24-47-53c9-32 38-76 61-102c21-24 67-65 99-79c28 25 42 37 54 40c1 0 3 0 5 0c10-1 94-27 100-41l2-6c7-12 17-33 3-51c-18-22-39-38-57-45z"/>
<glyph unicode="&#57485;" d="M28 398c0-15 13-28 29-28l199 0c16 0 28 13 28 28c0 16-12 29-28 29l-199 0c-16 0-29-13-29-29m114-142c0 16-13 28-28 28l-57 0c-16 0-29-12-29-28c0-16 13-28 29-28l57 0c15 0 28 12 28 28m-114-142c0-16 13-29 29-29l199 0c16 0 28 13 28 29c0 15-12 28-28 28l-199 0c-16 0-29-13-29-28m342 170l-142 0l0-56l142 0z m114-28l-114 85l0-170z"/>
<glyph unicode="&#57486;" d="M484 398c0-15-13-28-29-28l-199 0c-16 0-28 13-28 28c0 16 12 29 28 29l199 0c16 0 29-13 29-29m0-284c0-16-13-29-29-29l-199 0c-16 0-28 13-28 29c0 15 12 28 28 28l199 0c16 0 29-13 29-28m0 142c0 16-13 28-29 28l-57 0c-15 0-28-12-28-28c0-16 13-28 28-28l57 0c16 0 29 12 29 28m-342 28l142 0l0-56l-142 0z m-114-28l114 85l0-170z"/>
<glyph unicode="&#57487;" d="M448 480l-288 0l0-2c-54-7-96-54-96-110c0-56 42-103 96-110l0-226l64 0l0 384l64 0l0-384l64 0l0 384l96 0z"/>
<glyph unicode="&#57488;" d="M473 482l15-8c19-19-4-43-4-43c-44-43-87-87-130-130c-14-14-20-18-31-37c-13-21-25-44-35-66l-78 78c0 0 68 27 92 51c34 35 69 69 104 104c14 14 27 30 43 42z m-443-435c61 15 55 65 91 151c18 42 65 54 65 54l78-78c0 0 0-167-234-127"/>
<glyph unicode="&#57489;" d="M427 85l-342 0l0 313l29 0l0-28l28 0l0 28l57 0l0-28l29 0l0 28l56 0l0-28l29 0l0 28l57 0l0-28l28 0l0 28l29 0z m-29 370l0 29l-28 0l0-29l-57 0l0 29l-29 0l0-29l-56 0l0 29l-29 0l0-29l-57 0l0 29l-28 0l0-29l-86 0l0-427l456 0l0 427z"/>
<glyph unicode="&#57490;" d="M252 482l0 0c15-2 31 0 45-5c100-30 142-72 173-172c4-15 3-30 4-45l0 0c-3-74-35-142-98-184c-52-36-72-33-124-38c-122 0-222 99-222 222c3 73 35 142 98 184c24 16 53 22 79 33z m134-131l-225-225c26-17 57-28 91-28c90 0 162 72 162 162c0 34-11 65-28 91z m-134 71c-89 0-162-73-162-162c0-34 11-65 28-91l225 225c-26 17-57 28-91 28z m0 0z"/>
<glyph unicode="&#57491;" d="M451 178l-27 0l0 42l27 0z m-81 135l-228 0l0 114l142 0l0-86l86 0z m0-142l0-86l-228 0l0 143l228 0z m-285 85l-28 0l0 28l28 0z m370 57l-57 0l0 52l-89 90l-195 0l0-142l-57 0l-29-29l0-142l86 0l0-85l284 0l0 85l86 0l0 142z m-114-142l-170 0l0 28l170 0z m0-57l-170 0l0 28l170 0z"/>
<glyph unicode="&#57492;" d="M313 427c16 0 37-10 47-22l105-127c10-12 10-32 0-44l-105-127c-12-14-30-19-47-22l-256 0l-11 3l-15 15l-3 11l0 284l3 11l15 15l11 3z"/>
<glyph unicode="&#57493;" d="M268 484l10-6l127-106c14-12 19-29 22-46l0-257l-3-11l-15-15l-11-2l-284 0l-11 2l-15 15l-3 11l0 256c0 16 10 37 22 47l127 106l10 6z"/>
<glyph unicode="&#57494;" d="M114 484l284 0l11-3l15-15l3-11l0-256c0-16-10-37-22-47l-127-105c-17-10-6-6-34-6l-10 6l-127 105c-14 12-19 30-22 47l0 256l3 11l15 15z"/>
<glyph unicode="&#57495;" d="M188 427l256 0l11-3l16-15l2-11l0-284l-2-11l-16-15l-11-3l-256 0c-15 0-36 10-46 22l-106 127c-10 12-10 32 0 44l106 127c16 14 5 7 34 20z"/>
<glyph unicode="&#57496;" d="M455 142l-142 0l0 29l142 0z m-256 313l142 0l0-28l-142 0z m0-313l-142 0l0 29l142 0z m199 57l0 85l-114 0l0 29l86 0l0 171l-199 0l0-171l85 0l0-29l-142 0l0-85l-86 0l0-171l200 0l0 171l-86 0l0 57l228 0l0-57l-86 0l0-171l200 0l0 171z"/>
<glyph unicode="&#57497;" d="M221 414l0 0l15-69c-54-7-80-32-80-74l71 0l0-190l-188 0l0 151c2 64 17 123 78 157c20 11 44 14 66 21z m229 0l0 0l15-69c-53-13-26 0-75-45l-5-29l71 0l0-190l-188 0l0 151c2 64 17 123 78 157c20 11 44 14 66 21z"/>
<glyph unicode="&#57498;" d="M226 422c52-5 49-1 108-33c12-6 20-17 30-25c18-17 31-37 41-59l77 87l0-211l-188 0l65 72c-6 26-18 50-37 69c-30 29-57 36-96 39c-74-5-112-40-133-108c-4-12-4-42 0-54c15-49 21-44 44-79l0-23c-6-13-15-16-28-18l0 0c-22 3-35 18-46 38c-12 23-22 46-29 70c-4 13-4 26-4 39c0 51 21 102 57 138c35 35 48 32 100 54z"/>
<glyph unicode="&#57499;" d="M256 480c-60 0-117-24-158-66l-66 66l0-192l192 0l-81 81c30 30 70 47 113 47c88 0 160-72 160-160c0-88-72-160-160-160c-57 0-110 31-139 80l-55-32c40-69 114-112 194-112c124 0 224 101 224 224c0 123-100 224-224 224"/>
<glyph unicode="&#57500;" d="M482 482l-452 0l0-452l452 0z m-60-392l-332 0l0 332l332 0z m-241 61l-30 0l0 210l30 0z m90 0l-30 0l0 210l30 0z m90 0l-30 0l0 210l30 0z m-150 165c0-8-7-15-15-15l-60 0c-9 0-16 7-16 15c0 9 7 15 16 15l60 0c8 0 15-6 15-15m90-90c0-8-7-15-15-15l-60 0c-8 0-15 7-15 15c0 8 7 15 15 15l60 0c8 0 15-7 15-15m91 60c0-8-7-15-16-15l-60 0c-8 0-15 7-15 15c0 8 7 15 15 15l60 0c9 0 16-7 16-15"/>
<glyph unicode="&#57501;" d="M371 480l0 0c20-2 10 0 30-4l-62-61l15-68l67-14l61 60c4-19 3-9 4-29l0 0c-3-61-36-96-93-113c-7-3-15-2-23-3c-19 2-9 0-28 4c0 0-1-2-1-2l-211-209l-20-15l-45-3l-19 12c-21 21-18 59 7 84l208 207c-16 49 0 104 45 134c12 9 28 12 41 18z"/>
<glyph unicode="&#57502;" d="M172 341l17 0c10 0 18-7 18-17l0-38c9-3 18-6 26-11c31 31 17 22 35 33l13 1c9-6 16-14 22-22l0-13c-12-17-3-4-33-35c8-15 4-7 11-24l43 0l7-1l9-9c3-13 2-5 2-24l-2-7l-9-9c-20-5-5-2-48-2c-5-17-2-8-9-24l31-31c7-7 7-18 0-25c-14-13-7-9-18-16l-13 0c-17 11-4 3-34 32c-7-5-16-9-24-12c0-43 2-28-2-48l-9-9c-12-3-4-2-24-2l-7 2l-9 9c-4 19-2 5-2 43c-10 2-19 5-28 9l-27-26c-6-7-17-7-24 0l-13 12c-6 7-6 18 0 25l24 24c-6 8-11 18-14 29l-35 0l-7 1l-9 9c-2 13-1 5-1 24l1 7l9 9c18 4 5 2 40 2c2 10 6 20 11 30l-25 25c-6 6-6 18 0 24l13 13c6 6 17 6 24 0l25-25c8 5 18 9 28 12l0 38c0 10 8 17 17 17z m9-113c-24 0-44-19-44-43c0-24 20-44 44-44c24 0 43 20 43 44c0 24-19 43-43 43z m195 256l11 0l8-4c6-15 3-5 3-32c11-4 6-1 16-6c21 20 11 15 27 22c11-5 6-2 16-12c4-4 4-11 0-15l-19-19c3-4 5-9 7-15l28 0l8-3c4-11 3-5 3-19l-3-8c-16-6-5-3-35-3c-3-10-1-5-5-15l19-20c5-4 5-11 1-16l-8-7c-5-5-12-5-16 0l-18 18c-5-4-10-6-15-8l0-26c0-7-5-12-11-12l-11 0l-8 4c-6 15-4 5-4 31c-12 3-6 1-18 6c-19-19-9-14-24-20c-11 2-16 9-19 18c6 15 1 6 18 23c-7 12-4 6-9 19l-22 0l-8 3c-5 11-3 5-3 19l3 8c14 5 5 3 29 3c4 13 1 7 7 19c-18 18-13 9-19 24c2 10 9 15 19 19c14-6 5-2 23-19c12 6 6 3 18 7l0 24l3 8z m6-72c-16 0-28-13-28-28c0-15 12-28 28-28l10 3l15 14c3 15 3 7 0 22l-15 14z"/>
<glyph unicode="&#57503;" d="M237 482l26 0l9-2l14-13c5-28 2-7 2-65c13-4 25-9 37-15l42 42c10 10 26 10 36 0l18-18c9-9 9-25 0-35l-42-42c11-22 6-11 15-34l63 0l10-2l13-13c4-18 2-7 2-35l-2-10l-13-13c-29-6-7-2-70-2c-6-24-2-13-12-36c47-46 33-27 50-52l0-19c-8-13-19-23-32-32l-19 0c-24 16-6 4-48 46c-11-7-23-13-36-18l0-59c0-14-11-25-25-25l-25 0c-14 0-25 11-25 25l0 53c-15 2-29 7-41 13l-39-38c-9-10-25-10-35 0c-20 20-13 11-23 26l0 19c14 22 3 6 39 42c-15 27-9 13-20 42l-50 0l-10 2l-14 13c-3 18-1 7-1 35l1 10l14 13c25 6 6 2 57 2c3 16 9 30 17 44l-37 36c-9 10-9 26 0 35c20 21 11 14 26 24l19 0c23-15 6-3 44-41c13 7 26 13 40 17l0 55l2 10l14 13z m13-163c-35 0-63-28-63-63c0-35 28-63 63-63c35 0 63 28 63 63c0 35-28 63-63 63z"/>
<glyph unicode="&#57504;" d="M455 92c0-3-3-7-7-7l-100 0c-3 0-7 4-7 7l0 15c0 4 4 7 7 7l100 0c4 0 7-3 7-7z m-284 0c0-3-4-7-7-7l-100 0c-4 0-7 4-7 7l0 15c0 4 3 7 7 7l100 0c3 0 7-3 7-7z m284 221l0 71c0 8-6 14-14 14l-14 0l0 29l28 0l0 28l-114 0l0-28l29 0l0-29l-14 0c-8 0-15-6-15-14l0-71l-28 0l0 28c0 16-13 29-29 29l-56 0c-16 0-29-13-29-29l0-28l-28 0l0 71c0 8-7 14-15 14l-14 0l0 29l29 0l0 28l-114 0l0-28l28 0l0-29l-14 0c-8 0-14-6-14-14l0-71c-16 0-29-13-29-29l0-199c0-15 13-28 29-28l114 0c15 0 28 13 28 28l0 171l43 0c-8 0-14-6-14-14c0-8 6-14 14-14l28 0c8 0 14 6 14 14c0 8-6 14-14 14l43 0l0-171c0-15 13-28 28-28l114 0c16 0 29 13 29 28l0 199c0 16-13 29-29 29"/>
<glyph unicode="&#57505;" d="M226 482l0 0c13-1 27 0 39-4c24-8 49-15 70-30c58-38 99-117 85-188c-8-42-9-40-24-70c90-90 64-52 96-101l0-34c-9-19-22-24-42-28c-5 1-11 1-17 3c-5 3-10 6-15 10c-28 27-55 56-83 84c-32-23-71-31-109-34c-13 2-27 0-40 4c-86 27-126 67-152 153c-4 12-3 26-4 39l0 0c3 65 31 125 86 162c22 15 47 20 70 30z m0-60c-75 0-136-61-136-136c0-75 61-135 136-135c32 3 44 1 76 23c62 41 77 127 36 188c-26 39-43 39-85 57z"/>
<glyph unicode="&#57506;" d="M85 398l342 0l0-227l-342 0z m399-284l0 341l-456 0l0-341l143 0l0-29l-57 0l0-28l284 0l0 28l-57 0l0 29z"/>
<glyph unicode="&#57507;" d="M256 142l-57 0l0-57l57 0z m142 114l-284 0l0 199l284 0z m-57-199l-170 0l0 114l170 0z m-313 427l0-456l399 0l57 57l0 399z"/>
<glyph unicode="&#57508;" d="M454 60l11-5l4-10l-4-11l-11-5l-391 0c-9 0-16 7-16 16c0 8 7 15 16 15z m-152 422l0 0c15-3 8 0 21-9l123-124c12-12 12-32 0-44l-188-190c-12-12-35-25-52-25l-46 0c-16 0-40 13-51 25l-70 74c-12 12-12 31 0 43l241 241l10 7z m-132-164l-110-110l70-72c6-6 22-16 30-16l46 0c9 0 21 10 27 16l58 61z"/>
<glyph unicode="&#57509;" d="M150 89c0-33-27-61-61-61c-33 0-61 28-61 61c0 34 28 61 61 61c34 0 61-27 61-61m177-57l-80 0c-1 57-24 111-64 151c-40 41-94 63-151 64l0 80c162-2 293-133 295-295m157 0l-81 0c-2 204-167 369-370 372l0 80c247-3 448-204 451-452"/>
<glyph unicode="&#57510;" d="M372 114c-2 142-116 256-258 258l0 55c170-2 311-143 313-313z m-108 0c-1 28-18 77-45 105c-28 28-77 45-105 45l0 55c114-1 204-91 205-205z m-108 0c-23 0-42 19-42 42c0 23 19 42 42 42c23 0 42-19 42-42c0-23-19-42-42-42m242 370l-284 0c-47 0-86-39-86-86l0-284c0-47 39-86 86-86l284 0c47 0 86 39 86 86l0 284c0 47-39 86-86 86"/>
<glyph unicode="&#57511;" d="M298 452c-94 0-172-66-192-153l-76 1l103-165l106 162l-70 1c18 54 68 94 129 94c75 0 136-62 136-137c0-76-61-137-136-137c-28 0-54 8-76 23l-33-51c31-20 69-32 109-32c108 0 197 88 197 197c0 108-89 197-197 197"/>
<glyph unicode="&#57512;" d="M416 194l68-44l0-67l-68-45l-67 45l0 67z m0-21l-48-33l48-33l49 33z m-38 205l-59 40l59 39l59-39z m0 106l-81-55l0-81l81-54l81 54l0 81z m-209-119l140-93l0-141l-140-93l-141 93l0 141z m0-46l-103-68l103-68l102 68z"/>
<glyph unicode="&#57513;" d="M249 469l55-157l166-3l-133-100l48-159l-136 95l-136-95l48 159l-133 100l167 3z"/>
<glyph unicode="&#57514;" d="M259 458l39-114c5-14 22-27 38-27l120-2c16-1 19-9 6-18l-96-73c-14-11-16-28-14-44l35-116c4-15-3-20-16-11l-98 69c-13 9-34 9-47 0l-99-69c-13-9-20-4-15 11l35 116c4 17-3 32-15 44l-96 73c-12 9-10 17 6 18l121 2c15 0 32 13 37 27l40 114c5 15 13 15 19 0z m0 0z"/>
<glyph unicode="&#57515;" d="M482 452l-452 0l0-392l452 0z m-60-332l-332 0l0 272l332 0z m-87 65l-62 64l-59-59l-57 56l-23-42c-4-8-13-10-21-6c-7 4-10 13-6 20l42 78l65-64l60 61l53-56l51 101c4 8 13 10 20 7c8-4 11-13 7-20z"/>
<glyph unicode="&#57516;" d="M469 420l-426 0l0-249l426 0z m-28-221l-370 0l0 192l370 0z m-191 19l-43 69l-42-65l-41 63l-18-52c-1-4-5-6-9-5c-4 1-5 6-4 9l27 80l45-69l42 66l38-62l30 92c1 3 5 5 9 4c4-1 6-5 5-9z m49-133l-57 0l0 114l57 0z m-142-57l-28 0l113 89l0-30z m226 0l28 0l-112 89l0-30z m-84 370l-57 0l0 86l57 0z m170 0l-426 0l0 57l426 0z m-67-80c0-21-16-37-37-37c-21 0-38 16-38 37c0 21 17 38 38 38c21 0 37-17 37-38m-46-90l-29 0l0 28l29 0z m56 0l-28 0l0 28l28 0z"/>
<glyph unicode="&#57517;" d="M154 394l42-187l160-92c-38-41-33-43-102-68c-13-5-29-4-43-5l0 0c-12 1-25 0-37 3c-81 25-115 59-140 141c-4 11-3 24-4 36c0 80 52 148 124 172z m0 0z m162 75c-22 8-45 13-70 13c-21 0-42-4-62-10l46-205z m30-49c73-33 107-77 125-155c2-10 1-21 2-31l0 0c-3-44 0-40-22-92c-4-10-11-18-17-27l-178 102z"/>
<glyph unicode="&#57518;" d="M484 57l-456 0l0 28l456 0z m-342 57l-114 0l0 256l114 0z m171 0l-114 0l0 142l114 0z m171 0l-114 0l0 341l114 0z"/>
<glyph unicode="&#57519;" d="M54 478l0 0c22-2 11-1 33-2c19-1 55-1 108-1l132 0c55 0 92 0 110 1c20 1 10 0 30 2l0 0l4-3c-6-36-5-71-5-107l-27 0c-2 33-1 17-5 49c-1 8-2 12-4 14c-24 6-50 4-75 5l-46 0c-2-95-1-191-1-286c3-22-10-84 13-97c12-8 33-5 47-6l0-27c-75 3-39 2-107 3c-69-1-33 0-107-3l0 27c26 1 42 3 47 5c5 3 8 7 10 14c2 9 3 37 3 84l0 196c0 53 0 83-1 90l-46 0c-24 0-45-1-63-3c-7 0-11-1-12-2c-1-2-3-5-4-12c-3-15-4-32-5-51l-27 0c-1 45-1 70-2 76c-1 20 0 10-3 31l0 0z"/>
<glyph unicode="&#57520;" d="M368 481c14 3 28-8 32-25c3-14-1-27-9-33l10 2c15 3 31-8 35-25c4-15-3-29-15-35l5 1c17 4 34-7 38-25c4-17-7-34-24-38l-47-11l0-2l38 9c15 4 30-8 35-25c4-17-5-34-21-38c-131-30-84-16-142-35c23-7 31-51 35-67c5-21 10-53 5-75c-2-8-7-16-10-24c-26-15-13-12-37-13l-3 1c-12 25-18 64-33 86c-10 14-24 25-36 37c-23 23-46 45-69 68c-2 6-90-1-91 5c-3 61-4 85-4 153c43 3 53 41 137 69c27 10 63 17 93 22z"/>
<glyph unicode="&#57521;" d="M197 480l25-5c8-11 18-21 24-33c15-27 19-83 17-112c0-8-4-27-14-33c65 1 13 0 155 14c17 2 32-12 34-31c2-19-10-36-27-37l-40-4l0-2l51 5c19 2 36-12 38-30c2-19-12-36-31-38l-4 0c14-3 25-15 27-31c2-19-10-35-27-37l-11-1c11-4 19-15 21-30c2-19-9-35-23-37c-63-5-124-15-186-19l-1 0c-38 2-37 0-80 10c-12 3-23 8-35 11c-10 2-20 3-30 4l-16-2c0 62 0 112 0 171c11 13 30 9 41 21c1 2 2 4 3 6c6 11 12 23 18 35c17 33 35 66 48 100c3 12 4 98 4 98l3 2z"/>
<glyph unicode="&#57522;" d="M286 422c52 0 102-21 139-58c37-37 57-86 57-138c0-52-20-102-57-139c-6-5-14-8-22-8c-7 0-15 3-21 8c-12 12-12 31 0 43c26 26 40 60 40 96c0 36-14 70-40 96c-26 25-60 39-96 39c-36 0-70-14-96-39c-19-19-31-43-37-69l65-72l-188 0l0 211l77-87c10 22 23 42 41 59c37 37 86 58 138 58z m0 0z"/>
<glyph unicode="&#57523;" d="M484 484l-456 0l0-456l456 0z m-29-427l-398 0l0 398l398 0z m-313 213l0 125l63 0l0-124c0-32 16-48 41-48c25 0 41 15 41 46l0 126l63 0l0-124c0-72-41-103-104-103c-64 0-104 32-104 102m228-156l-228 0l0 28l228 0z"/>
<glyph unicode="&#57524;" d="M228 358c0 15-11 21-23 11l-74-54c-13-9-23-15-23-13c0 3-13 4-28 4l-23 0c-16 0-29-12-29-28l0-63c0-15 13-22 29-22l23 0c15 0 28-2 28-2c0 1 10-7 23-16l74-56c12-9 23-4 23 11z m56-108c0-10-5-18-12-24l20-20c13 11 21 26 21 44c0 17-8 33-21 43l-20-20c7-5 12-14 12-23m86 0c0-33-14-63-37-84l20-20c28 26 45 63 45 104c0 40-17 77-45 103l-20-20c23-21 37-50 37-83m45 162c42-41 69-99 69-162c-7-63-2-59-41-129c-7-13-19-23-28-34l-21 20c38 36 61 86 61 143c0 56-23 106-61 143z"/>
<glyph unicode="&#57525;" d="M341 424c0 23-15 31-34 17l-111-82c-18-13-34-22-34-19c0 4-19 7-43 7l-34 0c-23 0-42-20-42-43l0-94c0-23 19-34 42-34l34 0c24 0 43-3 43-2c0 1 16-11 34-25l111-83c19-14 34-7 34 16z m86-163c0-14-8-27-20-34l32-31c18 16 30 39 30 65c0 27-12 50-30 65l-32-30c12-8 20-20 20-35"/>
<glyph unicode="&#57526;" d="M252 480c15-2 30 0 44-4c99-31 141-73 172-172c4-14 2-29 4-44l0 0c-2-15 0-30-4-44c-31-99-73-141-172-172c-14-4-29-2-44-4l0 0c-15 2-30 0-44 4c-99 31-141 73-172 172c-4 14-2 29-4 44c0 121 99 220 220 220z m0 0z m0-64c-86 0-156-70-156-156c0-86 70-156 156-156c86 0 156 70 156 156c0 86-70 156-156 156z m0 0z m3-152c-9 0-16 7-16 16l0 64c0 9 7 16 16 16c9 0 16-7 16-16l0-64c0-9-7-16-16-16m80-64c-3 0-7 1-10 3l-80 64c-7 6-8 16-2 23c5 7 15 8 22 3l80-64c7-6 8-16 3-23c-4-4-8-6-13-6"/>
<glyph unicode="&#57527;" d="M299 171l170 0l0-57l-170 0z m57-86l-256 0l0 342l158 0l98-97l0-131l56 0l0 154l-130 131l-239 0l0-456l369 0l0 57z"/>
<glyph unicode="&#57528;" d="M219 85l-134 0l0 342l159 0l97-97l0-17l57 0l0 40l-130 131l-240 0l0-456l245 0l-53 56z m65 189l143 0l0-114l57 0c-83-88-42-44-124-132l0 0c-83 87-42 43-124 132l48 0z"/>
<glyph unicode="&#57529;" d="M384 85l-256 0l0 342l159 0l12-12l0-74l73 0l12-11z m-74 399l-239 0l0-456l370 0l0 325z m46-256l-200 0l0 28l200 0z m-86 85l-114 0l0 28l114 0z m86-171l-200 0l0 29l200 0z"/>
<glyph unicode="&#57531;" d="M355 469l1 0c67-4 105-37 125-102c4-13 3-63 3-69l-57 0l0 44c-2 41-32 66-71 70c-75-8-72-57-72-114l57 0l0-256l-313 0l0 256l200 0l0 44c1 42 20 81 56 106c14 9 31 12 46 19z m-172-259c-13 0-24-11-24-24c0-9 6-16 13-21l-13-66l48 0l-12 66c7 5 12 12 12 21c0 13-10 24-24 24z"/>
<glyph unicode="&#57532;" d="M250 484l0 0c44-2 79-27 88-70c1-10-1-27-3-47c12 3 14-23 14-33c-4-14-1-6-14-23l-8-2c-4-19-7-38-22-52l1-43c17-9 36-17 54-25c45-18 89-31 102-52c12-34 10-72 9-107l-442 0c0 12 0 2-1 28l0 1c1 26 0 54 9 78c14 21 58 34 102 52c45 19 55 25 55 25l1 43c-16 14-18 34-22 52c-11-3-21 16-22 25c-1 10 1 36 14 33c-6 42-7 79 35 103c10 6 21 8 31 12z"/>
<glyph unicode="&#57533;" d="M237 472l0 0c37-1 66-20 81-55c7-16 1-40-1-56l7-2c7-23 6-13 6-29c0-9-10-26-20-24c-5-37-21-49-21-49l1-41c0 0 10-6 51-23c38-16 76-27 92-44l-148 0l0-107l-258 0c0 0-3 84 8 102c13 19 55 31 97 49c42 17 52 23 52 23l0 41c-14 13-16 32-20 49l-8 2c-13 16-9 8-13 22c-1 9 1 34 13 31c-2 19-4 35-3 44c9 44 29 51 66 65z m75-350l161 0l0-54l-161 0z"/>
<glyph unicode="&#57534;" d="M250 484l0 0c44-2 79-27 88-70c1-10-1-27-3-47c12 3 14-23 14-33c-1-9-12-28-22-25c-5-40-22-52-22-52l1-43c0 0 5-3 23-11l0-3l-57 0l0-113l57 0l0-57l-300 0c0 0-4 89 8 107c14 21 58 34 102 52c45 19 55 25 55 25l1 43c-16 14-18 34-22 52l-8 2c-14 17-10 9-14 23c-1 10 1 36 14 33c-6 42-7 79 35 103c10 6 21 8 31 12z m164-426l-56 0l0 171l56 0z m-113 114l170 0l0-57l-170 0z"/>
<glyph unicode="&#57535;" d="M427 85l-342 0l0 285l342 0z m-342 342l29 0l0-29l-29 0z m57 0l29 0l0-29l-29 0z m57 0l29 0l0-29l-29 0z m256 57l-427 0l0-456l456 0l0 456z m-226-342l-58 88l-45-67l-24 16l69 103l55-83l58 117l61-121l43 43l20-21l-71-70l-53 106z"/>
<glyph unicode="&#57536;" d="M427 85l-342 0l0 285l342 0z m-342 342l29 0l0-29l-29 0z m57 0l29 0l0-29l-29 0z m57 0l29 0l0-29l-29 0z m256 57l-427 0l0-456l456 0l0 456z m-57-200l-199 0l0 29l199 0z m-234 0l-43 0l0 29l43 0z m234-56l-199 0l0 28l199 0z m-234 0l-43 0l0 28l43 0z m234-57l-199 0l0 28l199 0z m-234 0l-43 0l0 28l43 0z"/>
<glyph unicode="&#57537;" d="M427 85l-342 0l0 285l342 0z m-342 342l29 0l0-29l-29 0z m57 0l29 0l0-29l-29 0z m57 0l29 0l0-29l-29 0z m256 57l-427 0l0-456l456 0l0 456z m-57-200l-199 0l0 57l199 0z m0-170l-199 0l0 142l199 0z m-227 0l-57 0l0 227l57 0z"/>
<glyph unicode="&#57538;" d="M220 398l65 0c21-5 42-8 63-16c48-19 73-42 108-81c8-9 13-20 20-30l0-17c-42-69-110-117-191-127c-22-3-43 0-65 0c-21 5-43 8-63 16c-48 19-73 42-108 80c-8 10-14 21-21 31l0 17c42 66 65 75 129 111z m32-32c-57 0-103-46-103-104c0-57 46-103 103-103c57 0 104 46 104 103c0 58-47 104-104 104z m52-104c0-28-23-51-52-51c-28 0-51 23-51 51c0 29 23 52 51 52c29 0 52-23 52-52"/>
<glyph unicode="&#57539;" d="M455 171c-51-1-129-3-171-27l0 212c0 18 31 55 171 56z m-398 241c14 0 27 0 39-1c2 0 4 0 7-1c1 0 2 0 2 0c56-4 116-15 122-49c0-2 1-4 1-5l0-212c-42 24-120 26-171 27z m199-56c0 71-158 85-228 85l0-313l15 0c5 0 9 0 14 0l0-28c57 0 171 17 171-29l56 0c0 46 114 29 171 29l0 28c5 0 9 0 14 0l15 0l0 313c-70 0-228-14-228-85"/>
<glyph unicode="&#57540;" d="M226 482l0 0c13-1 27 0 39-4c86-26 126-66 153-152c4-13 2-27 4-40c0-35-10-67-26-96l86-86c18-17 18-46 0-64c-19-13-9-8-32-13c-5 1-11 1-17 3c-5 3-10 6-15 10c-28 27-55 56-83 84c-32-23-71-31-109-34c-13 2-27 0-40 4c-86 27-126 67-152 153c-4 12-3 26-4 39l0 0c3 65 31 125 86 162c22 15 47 20 70 30z m0-60c-75 0-136-61-136-136c0-75 61-135 136-135c32 3 44 1 76 23c62 41 77 127 36 188c-26 39-43 39-85 57z m-84-106l181 0l0-60l-181 0z"/>
<glyph unicode="&#57541;" d="M226 482l0 0c13-1 27 0 39-4c86-26 126-66 153-152c4-13 2-27 4-40c0-35-10-67-26-96l86-86c18-17 18-46 0-64c-19-13-9-8-32-13c-5 1-11 1-17 3c-5 3-10 6-15 10c-28 27-55 56-83 84c-32-23-71-31-109-34c-13 2-27 0-40 4c-86 27-126 67-152 153c-4 12-3 26-4 39l0 0c3 65 31 125 86 162c22 15 47 20 70 30z m0-60c-75 0-136-61-136-136c0-75 61-135 136-135c32 3 44 1 76 23c62 41 77 127 36 188c-26 39-43 39-85 57z m97-106l-60 0l0 60l-61 0l0-60l-60 0l0-60l60 0l0-60l61 0l0 60l60 0z"/>
<glyph unicode="&#57542;" d="M468 477c17-11 20-32 8-48l-243-309l-122 143c-12 15-9 37 6 48c16 12 40 9 52-5l62-73l186 237c12 15 35 18 51 7z m-41-449l-57 0l0 29l28 0l0 28l29 0z m-228 0l-57 0l0 29l57 0z m114 0l-57 0l0 29l57 0z m-228 0l-57 0l0 57l29 0l0-28l28 0z m-28 228l-29 0l0 57l29 0z m0-114l-29 0l0 57l29 0z m0 228l-29 0l0 57l57 0l0-29l-28 0z m142 28l-57 0l0 29l57 0z m114 0l-57 0l0 29l57 0z m114-14l-29 0l0 14l-14 0l0 29l43 0z m0-128l-29 0l0 57l29 0z m0-114l-29 0l0 57l29 0z"/>
<glyph unicode="&#57543;" d="M468 477c17-11 20-32 8-48l-243-309l-122 143c-12 15-9 37 6 48c16 12 40 9 52-5l62-73l186 237c12 15 35 18 51 7z m-41-50l-399 0l0-399l399 0z m-29-370l-341 0l0 341l341 0z"/>
<glyph unicode="&#57544;" d="M467 459c20-12 24-37 10-55l-291-355l-146 165c-15 17-12 41 7 55l15 7l33-4c44-32 10-6 88-93l223 272c14 17 42 21 61 8z"/>
<glyph unicode="&#57383;" d="M241 406c-54 31-151 31-151 31l0-271c0 0 97 0 151-31z m30 0c54 31 151 31 151 31l0-271c0 0-97 0-151-31z m181 1l0-276l-181-26l-30 0l-181 26l0 276l-30 0l0-302l211-30l30 0l211 30l0 302z"/>
<glyph unicode="&#57545;" d="M233 352c0 2 0 4-1 6c0 2 0 5-1 7c-1 1-1 3-2 5c-1 2-2 4-3 6c-1 2-3 3-4 5c-1 2-3 3-5 5c-1 2-3 3-5 5c-2 1-4 2-6 4c-2 1-4 3-6 4c-2 1-5 3-7 4c-2 1-5 2-7 3c-3 1-5 3-8 4c-3 1-6 2-8 3c-3 1-6 2-9 3c-3 1-6 1-9 2c-3 1-6 2-9 3c-3 0-6 1-9 2c-4 1-7 1-10 2c-3 1-6 1-10 2c-3 0-6 1-9 1c-3 1-7 1-10 2c-3 0-6 1-10 1c-3 0-6 1-9 1c-3 1-7 1-10 1c-3 1-6 1-9 1c-3 0-6 0-9 1c-3 0-6 0-9 0c-3 0-6 1-9 1c-2 0-5 0-8 0c-3 0-5 0-8 0c-2 0-5 0-7 0c-2 0-5 0-7 0l0-309l15 0c0 0 0 0 0 0c0 0 0 0 0 0c1 0 1 0 1 0c0 0 0 0 0 0c1 0 1 0 1 0c0 0 0 0 0 0c1 0 1 0 1 0c0 0 0 0 0 0c0 0 1 0 1 0c0 0 0 0 0 0c0 0 1 0 1 0c0 0 0 0 0 0c0 0 0 0 1 0c0 0 0 0 0 0c0 0 0 0 1 0c0 0 0 0 0 0c0 0 0 0 0 0c1 0 1 0 1 0c0 0 0 0 0 0c0 0 1 0 1 0c0 0 0 0 0 0c0 0 0 0 1 0c0 0 0 0 0 0c0 0 0 0 1 0c0 0 0 0 0 0c0 0 0 0 0 0c1 0 1 0 1 0c0 0 0 0 0 0c0 0 1 0 1 0c0 0 0 0 0 0c0 0 1 0 1 0c0 0 0 0 0 0l0-28c2 0 4 0 6 0c2 0 4 0 6 0c2 0 4 0 6 0c2 0 4 0 6 0c3 0 5 1 7 1c2 0 5 0 7 0c2 0 5 0 7 0c2 0 5 1 7 1c2 0 5 0 7 0c3 0 5 0 7 0c3 0 5 1 8 1c2 0 5 0 7 0c2 0 5 0 7 0c3 0 5 0 7 0c3 0 5 0 7 0c3 0 5 0 7 0c2 0 5-1 7-1c2 0 4 0 6 0c3 0 5-1 7-1c2 0 4 0 6-1c2 0 4 0 6-1c1 0 3 0 5-1c2 0 3-1 5-1c2-1 3-1 5-2c1-1 2-1 4-2c1-1 2-1 4-2c1-1 2-2 3-3c1 0 2-1 3-2c0-1 1-2 2-3c0-1 1-2 1-4c1-1 1-2 1-3c1-2 1-3 1-4l58 0c0 0 0 1 0 2c0 0 0 1 0 2c0 0 0 1 1 2c0 0 0 1 0 1c0 1 0 2 1 2c0 1 0 1 0 2c1 0 1 1 1 1c1 1 1 1 1 2c1 0 1 1 1 1c1 0 1 1 2 1c0 1 0 1 1 1c0 1 1 1 1 1c1 1 2 1 3 2c1 1 2 1 4 2c1 1 3 1 4 2c1 0 2 1 3 1c0 0 2 0 3 0c1 1 3 1 5 1c2 1 3 1 5 1c1 1 3 1 3 1c1 0 2 0 2 0c1 0 2 1 2 1c1 0 2 0 2 0c1 0 1 1 1 1l1 7l1 7l3 13l3 14c0 0 0 1 0 3c1 2 1 4 1 4c-12 2-26 0-38-2c-11-3-19-6-19-6c0 68-1 112-2 144c0 32 0 52 3 70c3 21 49 35 93 43c45 8 88 11 88 11l0-73l0-73c0 0 5 4 10 6c5 2 13 1 13 1l1 35l0 31l0 50l0 50c-3 0-5 0-7 0c-3 0-5 0-8 0c-2 0-5 0-7 0c-3 0-6 0-9 0c-2 0-5-1-8-1c-3 0-6 0-9 0c-3 0-6-1-9-1c-3 0-6 0-10-1c-3 0-6 0-9-1c-3 0-7 0-10-1c-3 0-6-1-10-1c-3-1-6-1-9-2c-3 0-7-1-10-1c-3-1-6-1-10-2c-3-1-6-1-9-2c-3-1-6-2-9-2c-4-1-6-2-10-3c-3-1-6-1-8-2c-3-1-6-2-9-3c-3-1-6-2-8-3c-3-1-6-3-8-4c-3-1-5-2-7-3c-3-1-5-3-7-4c-3-1-5-3-7-4c-2-2-4-3-6-4c-1-2-3-4-5-5c-1-2-3-3-4-5c-2-2-3-3-4-5c-1-2-2-4-3-6c-1-2-2-4-2-5c-1-2-1-5-2-7c0-2 0-4 0-6z m-204 56c7 0 14 0 21 0c6-1 13-1 19-1c1-1 2-1 4-1c1 0 2 0 3 0c1 0 1 0 2 0c0 0 0 0 1 0c28-2 58-6 81-13c23-8 40-19 43-36c0-1 0-2 0-3c1 0 1-1 1-2l0-210c-22 12-52 19-84 22c-32 4-65 5-91 5l0 239z m287-334l4 31l5 31l27-27l26-26l-31-5z m149 114l-80-80l-10 10l80 80l-17 17l-80-80l-9 9l80 80l-9 9l-89-89l54-54l89 89z m38 19c5 4 5 12 0 17l-36 36c-2 3-17 1-17 0c0 0-1-1-1-1l0 0l-17-17l53-54l17 17l0 1c0 0 1 0 1 1z"/>
<glyph unicode="&#57546;" d="M380 482l-33 0l-14-8l-215-188c-8-7-13-17-13-27c0-10 5-19 13-27l215-188c19-11 9-7 31-11l0 0c20 2 27 8 39 24l0 28l-9 12l-185 162l185 162l9 12l0 28l-9 13z"/>
<glyph unicode="&#57547;" d="M30 383l0-33l8-14l188-215c7-8 17-12 27-12c10 0 19 4 27 12l188 215c11 19 7 9 11 31l0 0c-2 21-8 28-24 40l-28 0l-12-10l-162-185l-162 185l-12 10l-28 0l-13-10z"/>
<glyph unicode="&#57548;" d="M30 132l0 33l8 14l188 215c7 8 17 13 27 13c10 0 19-5 27-13l188-215c11-19 7-9 11-31l0 0c-2-20-8-27-24-39l-28 0l-12 9l-162 185l-162-185l-12-9l-28 0l-13 9z"/>
<glyph unicode="&#57549;" d="M458 86l-192 340l-192-340z"/>
<glyph unicode="&#57550;" d="M437 448l-341-192l341-192z"/>
<glyph unicode="&#57551;" d="M74 426l192-340l192 340z"/>
<glyph unicode="&#57530;" d="M455 427c0-32-89-57-199-57c-110 0-199 25-199 57c0 31 89 57 199 57c110 0 199-26 199-57m-199-86c-18 0-142 2-199 40l0-68c0-32 89-57 199-57c110 0 199 25 199 57l0 68c-57-38-181-40-199-40m0-113c-18 0-142 1-199 39l0-68c0-31 89-57 199-57c110 0 199 26 199 57l0 68c-57-38-181-39-199-39m0-114c-18 0-142 1-199 40l0-69c0-31 89-57 199-57c110 0 199 26 199 57l0 69c-57-39-181-40-199-40"/>
<glyph unicode="&#57552;" d="M57 503l169 0l92-106l0-132c20 38 93 43 121 13c10-10 22-30 24-43c2-26-7-70-36-82c-15-6-30-9-46-11l-22 3l-21-22l16-15l-31-33l-18 15l-18-16l1-32c-37-14-36-5-60-34l0 0l-50 14c18 66 18 64 69 109l-190 0z m348-253l-11-1c-4-2-6-4-8-8l0-10c2-4 5-6 9-8l10 1c4 1 6 4 8 8l0 10l-4 5z m-196 207l-112 0l0-280l181 0l0 200l-8 10l-52 0l0 60z m-11-70l0-23l-81 0l0 23z m60-70l0-23l-141 0l0 23z m0-70l0-23l-141 0l0 23z"/>
<glyph unicode="&#57553;" d="M227 451c22-1 41-9 57-25c8-8 14-17 18-27l27 9l-27-58l-59 27l27 10c-2 6-6 11-11 16c-9 9-20 13-32 14c-6 0-12-1-17-3c-6-2-12-5-16-10c-5-4-8-9-10-14c-3-5-4-12-4-18c-1-6 1-12 2-17c2-5 5-9 8-13c18 1 35-2 52-7c19-6 36-16 52-30c14-13 24-27 32-43c8-17 13-36 13-58c2-18-1-35-7-52c-4-11-9-20-15-30l68 0l0 36l119-72l-119-72l0 36l-355 0l0 72l195 0c12 4 22 12 30 20c8 9 15 19 19 30c3 9 4 19 4 30c0 12-3 23-8 33c-4 9-10 17-19 25c-8 8-18 14-29 18c-10 2-20 4-31 3c-22-1-42-9-58-26c-8-9-14-19-18-29l49-16l-105-52l-51 104l48-16c7 18 18 35 32 50c18 19 40 32 65 40c-1 3-2 5-3 7c-3 10-5 19-4 29c-1 12 2 23 6 33c4 8 10 16 17 24c9 8 18 14 29 17c9 4 18 5 29 5z"/>
<glyph unicode="&#57554;" d="M105 312l143-143l143 143z"/>
<glyph unicode="&#57555;" d="M319 383l-142-142l142-143z"/>
<glyph unicode="&#57556;" d="M391 169l-143 143l-143-143z"/>
<glyph unicode="&#57557;" d="M177 98l142 143l-142 142z"/>
<glyph unicode="&#57558;" d="M61 122l0 243l33 0l0-108l131 0l0 108l33 0l0-243l-33 0l0 111l-131 0l0-111z m262 181l72 63l24 0l0-221l48 0l0-23l-130 0l0 23l52 0l0 166c0 5 0 10 1 15l-44-37c-1-1-2-2-3-2c-1-1-2-1-3-1c-2 0-4 1-5 1c-1 1-2 2-3 3z"/>
<glyph unicode="&#57559;" d="M61 122l0 243l33 0l0-108l131 0l0 108l33 0l0-243l-33 0l0 111l-131 0l0-111z m245 0l0 10c0 2 0 4 1 6c1 3 3 5 4 7l78 78c7 7 13 13 18 19c5 6 10 12 14 18c4 7 6 13 8 19c2 6 3 13 3 20c0 7-1 14-3 19c-2 5-5 10-9 13c-4 4-9 7-14 8c-6 2-11 3-17 3c-6 0-12-1-17-3c-6-2-10-4-14-7c-4-4-8-7-10-12c-3-4-5-9-6-14c-1-4-2-6-4-8c-2-1-5-2-8-2c0 0-1 0-1 0c-1 0-2 0-2 1l-16 2c1 11 4 21 9 30c4 8 10 15 17 21c7 6 15 11 24 14c9 2 19 4 29 4c11 0 20-2 29-5c9-3 17-7 23-13c7-6 12-13 16-21c4-9 6-18 6-29c0-9-2-17-4-25c-3-8-7-15-11-22c-5-7-11-14-17-21c-6-7-12-13-19-20l-64-66c5 1 9 2 14 3c4 1 9 1 13 1l82 0c3 0 6-1 8-3c1-2 2-4 2-7l0-18l-162 0z"/>
<glyph unicode="&#57560;" d="M61 122l0 243l33 0l0-108l131 0l0 108l33 0l0-243l-33 0l0 111l-131 0l0-111z m246 61l12 5c3 1 5 2 8 2c2 0 4-1 6-2c1-1 3-2 4-4c0-1 0-1 0-2c1 0 1-1 1-1c2-4 3-7 6-11c2-5 5-8 9-12c4-4 9-7 14-9c6-3 13-4 22-4c8 0 16 1 22 4c6 3 12 7 16 11c4 4 7 9 9 15c3 5 4 11 4 16c0 6-1 12-3 18c-2 5-5 10-9 14c-5 4-11 7-19 9c-8 2-18 4-31 4l0 21c10 1 19 2 26 4c7 2 13 5 18 9c5 3 8 8 10 13c2 5 3 11 3 17c0 7-1 14-3 19c-2 5-6 9-9 13c-4 3-9 6-14 7c-5 2-11 3-17 3c-6 0-12-1-17-3c-5-2-10-4-14-7c-4-4-7-7-10-12c-3-4-5-9-6-14c-1-4-2-6-4-8c-2-1-4-2-7-2c-1 0-1 0-2 0c-1 0-1 0-2 1l-16 2c2 11 5 21 9 30c5 8 10 15 17 21c7 6 15 11 24 14c9 2 19 4 30 4c10 0 19-1 28-4c9-3 16-8 23-13c6-6 11-12 15-20c3-7 5-16 5-25c0-8-1-15-3-21c-2-6-5-11-8-16c-4-5-8-9-14-12c-5-3-11-5-17-7c16-5 28-12 35-21c8-10 12-23 12-37c0-12-2-22-6-31c-5-9-10-16-18-23c-7-6-16-11-25-14c-10-3-21-5-32-5c-13 0-24 2-33 5c-9 3-17 7-23 13c-7 6-12 13-16 20c-4 8-8 17-10 26z"/>
<glyph unicode="&#57561;" d="M53 123l0 208l16 0c4 0 6-1 7-5l3-18c6 8 14 14 22 19c9 5 19 7 30 7c9 0 17-1 24-5c7-3 14-8 19-15c5-7 9-15 12-25c2-10 4-21 4-34c0-12-2-22-5-32c-3-10-7-19-13-26c-6-7-13-13-21-17c-9-4-18-6-28-6c-10 0-18 1-25 5c-7 3-13 7-18 13l0-69z m27 90c5-6 10-11 16-14c6-3 13-4 20-4c15 0 26 5 34 16c8 10 12 25 12 44c0 10-1 19-3 26c-2 7-5 13-8 18c-3 5-7 8-12 10c-5 2-11 4-17 4c-9 0-17-2-24-7c-6-4-12-9-18-17z m142-37l0 155l16 0c3 0 5 0 6-1c1-1 1-3 2-6l2-23c5 10 12 19 20 24c8 6 17 9 27 9c5 0 9 0 12-1c4-1 7-2 10-4l-4-20c0-2-2-4-5-4c-1 0-3 1-6 2c-3 1-7 2-13 2c-9 0-17-3-23-9c-7-5-12-14-17-24l0-100l-27 0z m113 81c0 11 1 21 5 30c3 10 8 18 14 25c6 7 14 12 23 16c9 4 19 6 31 6c9 0 17-2 25-5c8-3 15-7 21-13c5-6 10-13 13-22c3-9 5-19 5-30c0-4-1-7-1-8c-1-2-3-2-6-2l-103 0c0-10 2-19 4-26c3-7 6-13 10-18c4-5 10-8 16-11c5-2 12-3 20-3c6 0 12 0 17 2c5 2 9 3 13 5c4 2 6 4 9 5c2 2 4 2 6 2c2 0 4 0 5-2l8-10c-3-4-7-8-12-11c-5-3-10-5-15-7c-6-2-11-4-17-5c-6-1-11-1-17-1c-11 0-21 2-30 5c-9 4-17 9-23 16c-7 7-12 16-16 26c-3 11-5 23-5 36z m28 14l84 0c0 6 0 12-2 17c-2 6-4 10-8 14c-3 4-7 7-12 9c-5 2-10 3-17 3c-13 0-23-4-31-11c-7-8-12-19-14-32z"/>
</font>
</defs>
</svg>
